<?xml version="1.0" standalone="no"?>
<!DOCTYPE svg PUBLIC "-//W3C//DTD SVG 1.1//EN" "http://www.w3.org/Graphics/SVG/1.1/DTD/svg11.dtd" >
<svg xmlns="http://www.w3.org/2000/svg">
<metadata>Created by Icons8</metadata>
<defs>
  <font id="dailydot" horiz-adv-x="1024">
    <font-face font-family="dailydot"
      units-per-em="1024" ascent="896"
      descent="128"
      font-weight="500" />
    <missing-glyph horiz-adv-x="0" />
    <glyph glyph-name="search"
      unicode="&#xF100;"
      horiz-adv-x="1024" d="M430.08 834.56C237.60001024 834.56 81.92 678.87998976 81.92 486.4C81.92 293.91998976 237.60001024 138.24 430.08 138.24C498.80000512 138.24 562.40001024 158.4 616.32 192.64L867.84 -58.88L954.88 28.16L706.5600000000001 275.8400000000001C751.20001024 334.4 778.24 406.96000512 778.24 486.4C778.24 678.87998976 622.56001024 834.56 430.08 834.56zM430.08 752.64C577.52000512 752.64 696.32 633.84000512 696.32 486.4C696.32 338.95999488 577.52000512 220.16 430.08 220.16C282.63999488 220.16 163.84 338.95999488 163.84 486.4C163.84 633.84000512 282.63999488 752.64 430.08 752.64z" />
    <glyph glyph-name="pocket"
      unicode="&#xF101;"
      horiz-adv-x="1024" d="M512 -25.6C263.04 -25.6 61.44 174.0800000000001 61.44 420.72000512L61.44 705.03999488C61.44 742.55998976 92.23999488 773.12 130.24 773.12L893.76 773.12C931.76000512 773.12 962.56 742.55998976 962.56 705.03999488L962.56 420.72000512C962.56 174.0800000000001 760.96 -25.6 512 -25.6zM512 199.68C497.76001024 199.68 483.68001024 203.52 469.28001024 216.15998976L245.76 445.44C222.08 468.95998976 220.32001024 510.00000512 244.00001024 531.12000512C267.76000512 554.63999488 305.6799948800001 554.63999488 327.04 531.12000512L512 350.2399897600001L694.56001024 531.12000512C718.32000512 554.63999488 756.23999488 554.63999488 777.6 531.12000512C801.28 507.67998976 801.9200000000001 466.56 778.24 445.44L552.32 216.15998976C541.04000512 203.03998976 526.24001024 199.68 512 199.68z" />
    <glyph glyph-name="fire"
      unicode="&#xF102;"
      horiz-adv-x="1024" d="M447.36 896C426.95999488 894.799998976 410.56 878.64000512 408.9600000000001 858.24C396.72000512 707.12000512 323.2 622.23998976 245.12 532.48C167.04 442.7199897600001 81.92 346.16000512 81.92 192.64C81.92 92.23999488 126.4 11.03998976 186.24 -43.52C246.08 -98.08001024 320.32 -128 389.12 -128C403.9199948800001 -128.24000512 417.6 -120.4800102399999 425.03999488 -107.68001024C432.56000512 -94.96000512 432.56000512 -79.11999488 425.03999488 -66.40001024C417.6 -53.60001024 403.9199948800001 -45.8399948800001 389.12 -46.08C345.2800000000001 -46.08 286.4000000000001 -24.48001024 241.28 16.64C196.16 57.7599897600001 163.84 115.91999488 163.84 192.64C163.84 316.6399897600001 228.64001024 388.48 307.2 478.72C373.92001024 555.35998976 446.32000512 646.96000512 476.16 779.52C756.72000512 557.59998976 863.84001024 387.59999488 860.16 236.16C857.1200102399999 112.64 783.84001024 -15.84001024 701.44 -49.28C686.47999488 -53.68000512 675.36001024 -66.24 672.7199948800001 -81.6C670.08 -97.03999488 676.40000512 -112.56000512 688.96 -121.67999488C701.60001024 -130.8800000000001 718.32000512 -132.0800051199999 732.16 -124.8000000000001C860.48 -72.80001024 938.40001024 82.1600051199999 942.08 234.24C946.95999488 435.35998976 807.36 637.0400051199999 474.24 887.68C466.56 893.51999488 457.03999488 896.48 447.36 896zM522.24 580.48C510.96000512 579.27999488 500.72000512 573.36000512 493.92001024 564.23999488C487.11999488 555.2 484.40000512 543.6800000000001 486.4 532.48C498.72001024 461.59998976 501.04000512 404.23999488 497.28 362.24C493.51999488 320.24000512 481.99999488 294.32000512 474.88 286.0800000000001C467.76000512 277.83999488 472.32 278.55998976 460.8 283.52C449.2800000000001 288.47998976 425.84000512 307.35998976 401.92 344.32C394.16000512 356.2399948800001 380.72000512 363.27999488 366.47999488 362.88C352.24000512 362.48000512 339.27999488 354.71998976 332.1600000000001 342.4C277.19999488 245.83999488 280.07999488 167.60000512 303.36 116.48C326.64000512 65.3599948800001 369.2800000000001 40.96 369.2800000000001 40.96C389.04000512 30.00000512 414.00000512 37.19999488 424.9600000000001 56.96C435.9199948800001 76.72000512 428.72000512 101.6800051199999 408.9600000000001 112.64C408.9600000000001 112.64 390.7200000000001 122.95999488 378.24 150.4C369.12001024 170.31999488 362.95999488 199.43999488 377.6 244.48C393.44001024 228.6399897600001 409.76001024 216.56000512 428.1600000000001 208.64C464.32 193.03999488 511.28000512 202.56 536.96 232.32C562.63999488 262.0800000000001 574.56001024 303.36 579.2 355.2000000000001C581.04000512 375.92000512 580.72000512 399.75999488 579.84 424.32C608.88000512 386.56 631.36 347.91999488 641.28 309.12C658.72001024 240.9600000000001 648 172.16 600.32 99.1999999999999C587.91999488 80.07999488 593.35999488 54.64000512 612.48 42.24C631.60000512 29.83999488 657.03999488 35.27999488 669.44 54.4C727.6800000000001 143.5199897600001 743.60000512 239.92000512 720.64 329.6C697.67999488 419.27999488 638.00000512 500.72000512 552.96 570.88C544.48001024 578.16000512 533.36000512 581.59998976 522.24 580.48z" />
    <glyph glyph-name="campfire"
      unicode="&#xF103;"
      horiz-adv-x="1024" d="M384.64 896C376.48001024 896 369.2800000000001 891.35998976 366.08 883.84C362.88 876.31998976 364.32001024 867.35998976 369.92 861.44C397.68000512 831.68 411.59999488 788.23999488 407.68 741.76C403.04001024 687.6800000000001 375.75999488 638.00000512 332.8 605.44C329.20000512 602.71998976 326.47999488 600.96 325.12 600.3199999999999C322.95999488 603.12000512 320.16001024 609.11998976 318.08 613.12C309.76 629.12 295.92000512 656 263.68 656C255.04 656 246.08 653.59998976 236.16 649.6C228.55999488 646.47999488 223.52001024 639.2800051199999 223.36 631.04C223.28000512 622.79999488 228.00001024 615.75999488 235.52 612.48C239.20001024 610.88 242.24 606.64000512 244.48 600.3199999999999C251.91999488 579.6799897599999 248 542.47999488 235.52 517.76C232.32 511.43999488 225.52000512 505.28 217.6 497.92C195.04001024 477.12 163.84 448.39999488 163.84 377.6C163.84 210.88 353.9999948800001 76.8 511.36 76.8C713.52000512 76.8 819.2 185.03999488 819.2 291.8400000000001C819.2 357.6800051200001 786.63999488 397.12 760.32 428.8C742.00000512 450.80000512 727.11999488 468.16 727.6800000000001 488.32C728.0799948800001 504.15998976 734.64000512 518.3200051199999 741.12 533.76C765.1999948800001 590.64000512 773.92001024 641.03999488 652.8000000000001 724.48C646.00000512 729.11998976 636.72000512 729.52000512 629.76 725.12C622.79999488 720.7199948800001 619.52 712.7199948800001 620.8000000000001 704.64C626.16000512 671.36 623.11999488 644.08000512 613.12 632.3199999999999C608.32 626.71998976 601.44001024 624.7199948800001 592 625.9200000000001C582.24001024 627.2 578.48000512 629.59998976 577.92 630.4C575.20001024 634.3999897599999 580.0000102399999 653.1999948800001 583.04 665.6C590.8800102399999 697.75998976 601.84000512 742.32000512 579.84 789.12C533.12 888.56000512 418.48000512 896 384.64 896zM470.4 523.52C515.36001024 470.4 536.88000512 451.91999488 478.08 344.32C464.88000512 319.92000512 493.92001024 277.76 528 277.76C569.20000512 277.76 589.68000512 321.92 574.08 366.7200000000001C642.3199948800001 300.16 574.79999488 271.83998976 587.52 254.7200000000001C597.1999948800001 241.67999488 623.04 261.91998976 624 279.04C664.0799948800001 151.68 566.24001024 107.52 497.92 107.52C429.51999488 107.52 353.92 178.95999488 353.92 269.44C353.92 392.32 496.80001024 404.40000512 470.4 523.52zM213.76 79.36C191.28000512 79.5199897600001 170.08001024 64.5600051199999 165.12 42.88C162.40001024 30.8799897600001 164.16 18.1600051199999 170.88 7.68L384.64 45.4399999999999L223.36 78.72C220.16 79.43999488 216.96 79.36 213.76 79.36zM815.36 79.36C811.36001024 79.19998976 806.72 79.04 801.9200000000001 78.0799999999999L150.4 -37.76C148.72000512 -37.36000512 137.28 -44.23999488 129.92 -55.04C122.88 -65.28 120.48001024 -77.51999488 122.88 -89.6C127.28000512 -111.84001024 147.44000512 -128 170.88 -128C173.83999488 -128 176.88000512 -127.92000512 179.84 -127.36L819.84 -14.72C833.03999488 -12.32001024 844.4000051200001 -5.04000512 851.84 5.76C858.80000512 16 861.28001024 28.23999488 858.88 40.3199999999999C854.56001024 62.32000512 843.59999488 80.24000512 815.36 79.36zM812.8000000000001 -57.6L601.6 -94.72L759.6800000000001 -126.72C762.72001024 -127.36 765.76 -127.92000512 768.64 -128L770.5600000000001 -128C793.6 -128 812.96001024 -112.56000512 817.9200000000001 -90.88C820.55999488 -79.36 818.9599948800001 -67.84 812.8000000000001 -57.6z" />
    <glyph glyph-name="sparkler"
      unicode="&#xF104;"
      horiz-adv-x="1024" d="M593.92 875.52C582.656 875.52 573.44 866.304 573.44 855.04L573.6400076799999 560.5200076799999L526.32000512 678.28000768C522.22400512 688.72480768 510.36960768 693.860800512 499.72000768 689.5600025599999C489.2752076800001 685.46400256 484.13919232 673.36480768 488.43999232 662.92000768L530.24 558.47999488L321.7600102400001 767.2C313.77281024 775.1872 300.62721024 775.1872 292.63998976 767.2C284.65278976 759.2128 284.65278976 746.0672 292.63998976 738.0799999999999L505.0399948800001 525.72000256L376.4399923200001 579.1600025600001C365.99519232 583.46080256 353.90081024 578.5647923199999 349.5999897600001 568.1199923199999C345.29918976 557.67519232 350.1952 545.58081024 360.64 541.2800102399999L493.15999744 486.4L204.8 486.4C193.536 486.4 184.32 477.184 184.32 465.92C184.32 454.6559999999999 193.536 445.44 204.8 445.44L463.88000768 445.44L258.44000768 362.08001024C247.99520768 357.77921024 243.10401024 345.88960768 247.19998976 335.24000768C250.47681024 327.45760768 258.2528 322.56 266.24 322.56C268.9024 322.56 271.37759232 322.9760102400001 274.03999232 323.9999897600001L500.72000512 416.1599897600001L213.79999744 129.24000256C207.33704192 122.88657408 204.469252096 114.30459392 204.91999232 105.88000256L46.960001024 -52.08000512A20.482048 20.482048 0 1 1 75.919998976 -81.03999488L233.92 76.95998976C234.4544460800001 76.93121536 234.98674176 76.8 235.52 76.8C243.3024000000001 76.8 251.30080256 79.8607974400001 257.24000256 85.79999744L534.32000512 362.91999744L498.48000512 268.27999232C494.38400512 257.8351923199999 499.71040256 245.97600256 510.36000256 241.88000256C512.8176025600001 241.06080256 515.2624025599999 240.64 517.72000256 240.64C525.91200256 240.64 533.72801024 245.76800768 536.80001024 253.96000768L573.6400076799999 351.04L573.44 76.8C573.44 65.5360000000001 582.656 56.3199999999999 593.92 56.3199999999999C605.1840000000001 56.3199999999999 614.4 65.5360000000001 614.4 76.8L614.19999232 347.95999232L677.27998976 192.1199923200001C680.55678976 184.13279232 688.128 179.1999999999999 696.32 179.1999999999999C698.7776 179.1999999999999 701.42240768 179.61601024 703.88000768 180.6399897600001C714.3248076799999 184.94078976 719.4560102400001 196.79520768 715.36001024 207.24000768L642.88 388.08000512L866.07998976 164.6399897600001C870.17598976 160.74878976 875.3152 158.72 880.64 158.72C885.9648 158.72 891.1040102400001 160.74878976 895.20001024 164.6399897600001C903.18718976 172.62721024 903.18721024 185.77278976 895.20001024 193.7600102399999L679.71999744 409.20000512L811.40000768 354.52000256C813.85760768 353.49600256 816.5376 353.07999232 819.2 353.07999232C827.1872000000001 353.07999232 834.7632025600001 357.77759232 838.0400025600001 365.55999232C842.34080256 376.00479232 837.44479232 388.09919488 826.99999232 392.39999488L698.99999232 445.44L983.04 445.44C994.304 445.44 1003.52 454.6559999999999 1003.52 465.92C1003.52 477.184 994.304 486.4 983.04 486.4L673.6 486.4L929.39999232 590.23998976C939.84479232 594.5408102399999 944.73601024 606.43039232 940.64001024 617.07999232C936.33918976 627.52479232 924.44960768 632.62081024 913.80000768 628.32001024L697.1199897600001 540.27999232L915.68001024 758.56C923.66721024 766.5472 923.66721024 779.6928 915.68001024 787.68C907.69278976 795.6672 894.54721024 795.6672 886.55998976 787.68L649.20000512 550.0799999999999L715.5599974400001 724.999999488C719.45119744 735.444799488 714.1295923199999 747.303999488 703.4799923200001 751.399999488C693.0351923200001 755.291199488 681.17600256 749.9696005119999 677.08000256 739.320000512L614.4 574.04000256L614.4 855.04C614.4 866.304 605.1840000000001 875.52 593.92 875.52zM451.04001024 834.56C448.3772825600001 834.622400512 445.68193024 834.16448 443.0399897600001 833.12C432.51329024 828.9625599999999 427.36254976 817.08672 431.5199897600001 806.56L455.88000768 745.039998976C459.05440768 736.991361024 466.76895744 732.080001024 474.91999744 732.080001024C477.41855744 732.080001024 479.96192768 732.536958976 482.44000768 733.519998976C492.94624768 737.677441024 498.11744768 749.593280512 493.96000768 760.1200005119999L469.60001024 821.6C466.48193024 829.47968 459.02815232 834.372800512 451.04001024 834.56zM737.28 834.56A20.48 20.48 0 0 1 716.8000000000001 814.08A20.48 20.48 0 0 1 737.28 793.6A20.48 20.48 0 0 1 757.76 814.08A20.48 20.48 0 0 1 737.28 834.56zM245.36000512 629.76C237.37567232 629.6006451200001 229.86878976 624.73504768 226.71998976 616.84000768C222.52158976 606.3542476800001 227.65375488 594.4383897600001 238.1599948800001 590.23998976L299.55999744 565.72000256C302.05855744 564.7369625599999 304.58048512 564.23999488 307.12000512 564.23999488C315.25056512 564.23999488 322.96511488 569.11233024 326.15999488 577.12001024C330.35839488 587.62622976 325.22622976 599.56160512 314.72001024 603.76000512L253.36000512 628.27999232C250.72832512 629.32447232 248.02144256 629.81312512 245.36000512 629.76zM880.52000768 368.48001024C872.52703232 368.41951232 865.0009600000001 363.6736 861.76 355.8400000000001C857.4387200000001 345.3952 862.39520768 333.42175232 872.84000768 329.07999232L934.24001024 303.64000256C936.8204902400003 302.5750425600001 939.45856 302.0800000000001 942.08 302.0800000000001C950.12864 302.0800000000001 957.74367744 306.83518976 960.99999744 314.72001024C965.32127744 325.14433024 960.36478976 337.13823744 949.91998976 341.4799974400001L888.56000512 366.9200076800001C885.93344512 368.00032768 883.18431232 368.5001625600001 880.52000768 368.48001024zM493.59998976 220.16C485.63488768 219.86144256 478.22592 214.87648768 475.2 206.9200076799999L451.87999744 145.48000768C447.86591744 134.91232768 453.21183232 123.09407744 463.79999232 119.07999744C466.17567232 118.19935744 468.62336 117.76 471.04 117.76C479.29344 117.76 487.08704256 122.8079923200001 490.20000256 130.9999923200001L513.48000768 192.43999232C517.49408768 203.00767232 512.1676902400001 214.82592256 501.60001024 218.84000256C498.96833024 219.83840256 496.25503744 220.25951232 493.59998976 220.16zM737.28 138.24A20.48 20.48 0 0 1 716.8000000000001 117.76A20.48 20.48 0 0 1 737.28 97.28A20.48 20.48 0 0 1 757.76 117.76A20.48 20.48 0 0 1 737.28 138.24z" />
    <glyph glyph-name="web-application-firewall"
      unicode="&#xF105;"
      horiz-adv-x="1024" d="M1007.616 261.12C990.26944 264.82688 975.60576 268.73856 962.56 272.73216V691.2C962.56 725.07392 934.9939199999998 752.64 901.12 752.64H163.84C129.96608 752.64 102.4 725.07392 102.4 691.2V76.8C102.4 42.9260800000001 129.96608 15.36 163.84 15.36H670.76096C726.81472 -82.80064 805.0278399999999 -123.33056 808.9599999999999 -125.952L819.1999999999998 -130.048L829.4399999999998 -125.952C837.632 -121.8560000000001 1024 -17.408 1024 240.64V257.024L1007.616 261.12zM307.2 691.2C318.50496 691.2 327.68 682.02496 327.68 670.72C327.68 659.41504 318.50496 650.24 307.2 650.24S286.7200000000001 659.41504 286.7200000000001 670.72C286.7200000000001 682.02496 295.89504 691.2 307.2 691.2zM245.76 691.2C257.06496 691.2 266.24 682.02496 266.24 670.72C266.24 659.41504 257.06496 650.24 245.76 650.24S225.28 659.41504 225.28 670.72C225.28 682.02496 234.4550400000001 691.2 245.76 691.2zM184.32 691.2C195.62496 691.2 204.8 682.02496 204.8 670.72C204.8 659.41504 195.62496 650.24 184.32 650.24S163.84 659.41504 163.84 670.72C163.84 682.02496 173.01504 691.2 184.32 691.2zM921.6 287.58016C911.6672 291.8400000000001 902.92224 296.0384 894.9760000000001 300.0320000000001C870.4 312.32 849.9200000000001 322.56 819.2 322.56S768 312.32 743.424 300.032C718.8479999999998 287.7439999999999 688.1279999999999 273.4079999999999 630.784 261.12L614.4 257.024V240.64C614.4 166.4 629.28896 105.82016 650.56768 56.3199999999999H163.84C152.53504 56.3199999999999 143.36 65.5155199999999 143.36 76.8V588.8H921.6V287.58016z" />
    <glyph glyph-name="user-shield"
      unicode="&#xF106;"
      horiz-adv-x="1024" d="M512 896C471.43999488 896 434.72001024 876.63998976 384 849.92C318.64000512 815.51998976 229.04000512 768.64 77.44 735.36L61.44 731.52L61.44 715.52C61.44 91.5999948799999 499.27999488 -117.68000512 503.68 -119.6800000000001L512.64 -124.16L520.96 -119.6800000000001C525.36000512 -117.44 962.56 112.39999488 962.56 715.52L962.56 731.52L946.56 735.36C794.9599948800001 768.64 705.35999488 815.51998976 640 849.92C589.28001024 876.63998976 552.56000512 896 512 896zM512 629.76C625.1200102399999 629.76 716.8000000000001 538.07998976 716.8000000000001 424.96C716.8000000000001 311.83998976 625.1200102399999 220.16 512 220.16C398.88001024 220.16 307.2 311.83998976 307.2 424.96C307.2 538.07998976 398.88001024 629.76 512 629.76zM511.36 575.36C435.8400000000001 574.00000512 426.31999488 518.15999488 442.88 454.4C439.92000512 452.55999488 435.27999488 447.28000512 436.48 437.12C438.7200000000001 418.24 446.32000512 413.19999488 451.2 412.8C453.12 395.2 464.80001024 374.4799948800001 471.04 371.2000000000001C471.04 358.64000512 471.68 349.12 470.4 335.36C463.20001024 316.08000512 436.2399948800001 307.9999897600001 409.6 296.9600000000001C437.68000512 274.3999897600001 473.28 261.12 512 261.12C550.79999488 261.12 586.3199948800001 275.0399897600001 614.4 297.6C587.91999488 308.6399897600001 561.35999488 316.08000512 554.24 335.36C552.96 349.12 553.6 358.64000512 553.6 371.2000000000001C559.84001024 374.4799948800001 570.9599948800001 395.2 572.8000000000001 412.8C577.67999488 413.19999488 585.28 418.24 587.52 437.12C588.72000512 447.28000512 584.0799948800001 452.55999488 581.12 454.4C589.12 478.4 605.51999488 552.3199999999999 550.4 560C544.7199948800001 569.99999488 530.24 575.36 511.36 575.36z" />
    <glyph glyph-name="magazine"
      unicode="&#xF107;"
      horiz-adv-x="1024" d="M840.80001024 858.80000512C836.4000051200001 859.03998976 831.92000512 857.84000512 828.08000512 855.19998976C826.80000512 854.4 703.92000512 773.12 368.64 773.12C360.88000512 773.12 353.84000512 768.71999488 350.32000512 761.75998976L44.64001024 150.4C39.04 142.55998976 39.60000512 131.91999488 46.00000512 124.8C46.32000512 124.40000512 46.64000512 124.08000512 46.88001024 123.84C47.28000512 123.44000512 47.60000512 123.12000512 48 122.8000051199999C48 122.71998976 48 122.71998976 48 122.71998976C48.39999488 122.3999897600001 48.71999488 122.1600051199999 49.12001024 121.92C54.79999488 117.0400051199999 296.56000512 -87.04 696.32 -87.04C704.16001024 -87.04 711.28000512 -82.5600000000001 714.72001024 -75.52L981.28001024 469.19999488C984.39999488 475.44000512 984.24000512 482.88 980.64001024 488.88000512C977.12001024 494.87998976 970.80000512 498.63999488 963.84 498.95999488C955.59999488 499.27999488 948.00001024 494.72 944.48001024 487.28000512L683.91999488 -45.36000512C554.80000512 -43.84 443.9199948800001 -20.55999488 353.03999488 9.52000512C425.76001024 -0.7199948800001 509.04000512 -2.3199948800001 601.28 13.76C607.75999488 14.8799897600001 613.28001024 19.03998976 616.24000512 24.96L944.24000512 695.36C947.59999488 701.91998976 947.12000512 709.76 943.11999488 715.91999488C939.12000512 722.07998976 932.08000512 725.51999488 924.8 725.12C917.28001024 724.6399897599999 910.64000512 720.1599897599999 907.52 713.43998976L584.32 53.12C427.2 27.84 298.16000512 54.55998976 209.03999488 86.79999488C239.4399948800001 83.03998976 272.32 80.47998976 306.31999488 80.47998976C373.60001024 80.47998976 444.64001024 90.24 505.92 119.75999488C510.08 121.84000512 513.52000512 125.12 515.52 129.28L858.08001024 829.44C862.15999488 837.76 860.08000512 847.75999488 853.04000512 853.83999488C849.52000512 856.88000512 845.1999948800001 858.56 840.80001024 858.80000512z" />
    <glyph glyph-name="advertisement-page"
      unicode="&#xF108;"
      horiz-adv-x="1024" d="M143.36 752.64C108.55999488 752.64 81.92 726.00000512 81.92 691.2L81.92 629.76L942.08 629.76L942.08 691.2C942.08 726.00000512 915.44000512 752.64 880.64 752.64zM163.84 711.6800000000001C175.11999488 711.6800000000001 184.32 702.47999488 184.32 691.2C184.32 679.92000512 175.11999488 670.72 163.84 670.72C152.56000512 670.72 143.36 679.92000512 143.36 691.2C143.36 702.47999488 152.56000512 711.6800000000001 163.84 711.6800000000001zM225.28 711.6800000000001C236.55999488 711.6800000000001 245.76 702.47999488 245.76 691.2C245.76 679.92000512 236.55999488 670.72 225.28 670.72C214.00000512 670.72 204.8 679.92000512 204.8 691.2C204.8 702.47999488 214.00000512 711.6800000000001 225.28 711.6800000000001zM286.7200000000001 711.6800000000001C297.9999948800001 711.6800000000001 307.2 702.47999488 307.2 691.2C307.2 679.92000512 297.9999948800001 670.72 286.7200000000001 670.72C275.44000512 670.72 266.24 679.92000512 266.24 691.2C266.24 702.47999488 275.44000512 711.6800000000001 286.7200000000001 711.6800000000001zM81.92 588.8L81.92 44.16L401.2800000000001 363.52L225.28 363.52L225.28 404.48L471.04 404.48L471.04 158.72L430.08 158.72L430.08 334.7200000000001L110.72 15.36L880.64 15.36C915.44000512 15.36 942.08 41.99999488 942.08 76.8L942.08 588.8z" />
    <glyph glyph-name="full-page-view"
      unicode="&#xF109;"
      horiz-adv-x="1024" d="M962.56 752.64H61.44C27.56608 752.64 0 725.07392 0 691.2V76.8C0 42.9260800000001 27.56608 15.36 61.44 15.36H962.56C996.43392 15.36 1024 42.9260800000001 1024 76.8V691.2C1024 725.07392 996.43392 752.64 962.56 752.64zM245.76 97.28H81.92V261.12C81.92 272.42496 91.07456 281.6 102.4 281.6S122.88 272.42496 122.88 261.12V138.24H245.76C257.08544 138.24 266.24 129.0649599999999 266.24 117.76S257.08544 97.28 245.76 97.28zM245.76 629.76H122.88V506.88C122.88 495.57504 113.72544 486.4 102.4 486.4S81.92 495.57504 81.92 506.88V670.72H245.76C257.08544 670.72 266.24 661.54496 266.24 650.24S257.08544 629.76 245.76 629.76zM942.08 97.28H778.24C766.91456 97.28 757.76 106.4550399999999 757.76 117.76S766.91456 138.24 778.24 138.24H901.12V261.12C901.12 272.42496 910.27456 281.6 921.6 281.6S942.08 272.42496 942.08 261.12V97.28zM942.08 506.88C942.08 495.57504 932.92544 486.4 921.6 486.4S901.12 495.57504 901.12 506.88V629.76H778.24C766.91456 629.76 757.76 638.9350400000001 757.76 650.24S766.91456 670.72 778.24 670.72H942.08V506.88z" />
    <glyph glyph-name="manual-page-rotation"
      unicode="&#xF10A;"
      horiz-adv-x="1024" d="M389.12 834.56L389.12 458.39998976C433.09056 488.97665024 485.90848 506.88 542.72 506.88L585.44001024 506.88L538.48000512 553.84000512C530.47232512 561.84768512 530.47232512 574.79231488 538.48000512 582.79999488C546.48768512 590.8076748799999 559.43231488 590.8076748799999 567.43999488 582.79999488L649.35999488 500.87999488C657.36767488 492.87231488 657.36767488 479.92768512 649.35999488 471.92000512L567.43999488 390.00000512C563.4463948800001 386.00640512 558.20288 384 552.96 384C547.71712 384 542.47360512 386.00640512 538.48000512 390.00000512C530.47232512 398.00768512 530.47232512 410.95231488 538.48000512 418.95999488L585.44001024 465.92L542.72 465.92C484.02432 465.92 430.40768 443.23168256 389.12 406.04000256L389.12 56.3199999999999L593.92 56.3199999999999L942.08 56.3199999999999L942.08 834.56L389.12 834.56zM593.92 56.3199999999999A20.48 20.48 0 0 1 573.44 35.84A20.48 20.48 0 0 1 593.92 15.36A20.48 20.48 0 0 1 614.4 35.84A20.48 20.48 0 0 1 593.92 56.3199999999999zM389.12 406.04000256L389.12 458.39998976C315.0848000000001 406.8927897600001 266.24 319.3651200000001 266.24 220.16C266.24 208.83456 275.4150400000001 199.68 286.7200000000001 199.68C298.02496 199.68 307.2 208.83456 307.2 220.16C307.2 294.42048 339.0668800000001 360.94304256 389.12 406.04000256zM348.1600000000001 691.2A20.48 20.48 0 0 1 327.68 670.72A20.48 20.48 0 0 1 348.1600000000001 650.24A20.48 20.48 0 0 1 368.64 670.72A20.48 20.48 0 0 1 348.1600000000001 691.2zM266.24 670.72A20.48 20.48 0 0 1 245.76 650.24A20.48 20.48 0 0 1 266.24 629.76A20.48 20.48 0 0 1 286.7200000000001 650.24A20.48 20.48 0 0 1 266.24 670.72zM184.32 650.24A20.48 20.48 0 0 1 163.84 629.76A20.48 20.48 0 0 1 184.32 609.28A20.48 20.48 0 0 1 204.8 629.76A20.48 20.48 0 0 1 184.32 650.24zM102.4 629.76A20.48 20.48 0 0 1 81.92 609.28A20.48 20.48 0 0 1 102.4 588.8A20.48 20.48 0 0 1 122.88 609.28A20.48 20.48 0 0 1 102.4 629.76zM122.88 547.8399999999999A20.48 20.48 0 0 1 102.4 527.36A20.48 20.48 0 0 1 122.88 506.88A20.48 20.48 0 0 1 143.36 527.36A20.48 20.48 0 0 1 122.88 547.8399999999999zM143.36 465.92A20.48 20.48 0 0 1 122.88 445.44A20.48 20.48 0 0 1 143.36 424.96A20.48 20.48 0 0 1 163.84 445.44A20.48 20.48 0 0 1 143.36 465.92zM163.84 384A20.48 20.48 0 0 1 143.36 363.52A20.48 20.48 0 0 1 163.84 343.04A20.48 20.48 0 0 1 184.32 363.52A20.48 20.48 0 0 1 163.84 384zM184.32 302.0800000000001A20.48 20.48 0 0 1 163.84 281.6A20.48 20.48 0 0 1 184.32 261.12A20.48 20.48 0 0 1 204.8 281.6A20.48 20.48 0 0 1 184.32 302.0800000000001zM204.8 220.16A20.48 20.48 0 0 1 184.32 199.68A20.48 20.48 0 0 1 204.8 179.1999999999999A20.48 20.48 0 0 1 225.28 199.68A20.48 20.48 0 0 1 204.8 220.16zM225.28 138.24A20.48 20.48 0 0 1 204.8 117.76A20.48 20.48 0 0 1 225.28 97.28A20.48 20.48 0 0 1 245.76 117.76A20.48 20.48 0 0 1 225.28 138.24zM245.76 56.3199999999999A20.48 20.48 0 0 1 225.28 35.84A20.48 20.48 0 0 1 245.76 15.36A20.48 20.48 0 0 1 266.24 35.84A20.48 20.48 0 0 1 245.76 56.3199999999999zM512 35.84A20.48 20.48 0 0 1 491.52 15.36A20.48 20.48 0 0 1 512 -5.12A20.48 20.48 0 0 1 532.48 15.36A20.48 20.48 0 0 1 512 35.84zM430.08 15.36A20.48 20.48 0 0 1 409.6 -5.12A20.48 20.48 0 0 1 430.08 -25.6A20.48 20.48 0 0 1 450.56 -5.12A20.48 20.48 0 0 1 430.08 15.36zM348.1600000000001 -5.12A20.48 20.48 0 0 1 327.68 -25.6A20.48 20.48 0 0 1 348.1600000000001 -46.08A20.48 20.48 0 0 1 368.64 -25.6A20.48 20.48 0 0 1 348.1600000000001 -5.12zM266.24 -25.6A20.48 20.48 0 0 1 245.76 -46.08A20.48 20.48 0 0 1 266.24 -66.5600000000001A20.48 20.48 0 0 1 286.7200000000001 -46.08A20.48 20.48 0 0 1 266.24 -25.6z" />
    <glyph glyph-name="rotate-page-counterclockwise"
      unicode="&#xF10B;"
      horiz-adv-x="1024" d="M512 834.56L512 424.96L716.8000000000001 424.96L716.8000000000001 220.16L962.56 220.16L962.56 834.56L512 834.56zM286.7200000000001 793.6C250.6095616000001 793.6 219.00158976 782.191822848 197.040001024 760.16C175.078397952 738.128177152 163.84 706.58623488 163.84 670.72L163.84 576.79998976L96.399998976 644.23999488A20.482048 20.482048 0 0 1 81.720000512 650.44000768A20.482048 20.482048 0 0 1 67.440001024 615.2800051199999L168.039999488 514.67999232A20.482048 20.482048 0 0 1 200.560001024 514.5999974399999A20.482048 20.482048 0 0 1 200.64 514.7199897600001L301.19999488 615.2800051199999A20.482048 20.482048 0 1 1 272.24000512 644.23999488L204.8 576.79998976L204.8 670.72C204.8 698.30080512 212.81603584 717.933582336 226.07998976 731.239999488C239.3440256 744.54641664 258.9328384 752.64 286.7200000000001 752.64L368.64 752.64A20.482048 20.482048 0 1 1 368.64 793.6L286.7200000000001 793.6zM81.92 384A20.48 20.48 0 0 1 61.44 363.52A20.48 20.48 0 0 1 81.92 343.04A20.48 20.48 0 0 1 102.4 363.52A20.48 20.48 0 0 1 81.92 384zM163.84 384A20.48 20.48 0 0 1 143.36 363.52A20.48 20.48 0 0 1 163.84 343.04A20.48 20.48 0 0 1 184.32 363.52A20.48 20.48 0 0 1 163.84 384zM245.76 384A20.48 20.48 0 0 1 225.28 363.52A20.48 20.48 0 0 1 245.76 343.04A20.48 20.48 0 0 1 266.24 363.52A20.48 20.48 0 0 1 245.76 384zM327.68 384A20.48 20.48 0 0 1 307.2 363.52A20.48 20.48 0 0 1 327.68 343.04A20.48 20.48 0 0 1 348.1600000000001 363.52A20.48 20.48 0 0 1 327.68 384zM409.6 384A20.48 20.48 0 0 1 389.12 363.52A20.48 20.48 0 0 1 409.6 343.04A20.48 20.48 0 0 1 430.08 363.52A20.48 20.48 0 0 1 409.6 384zM491.52 384A20.48 20.48 0 0 1 471.04 363.52A20.48 20.48 0 0 1 491.52 343.04A20.48 20.48 0 0 1 512 363.52A20.48 20.48 0 0 1 491.52 384zM573.44 384A20.48 20.48 0 0 1 552.96 363.52A20.48 20.48 0 0 1 573.44 343.04A20.48 20.48 0 0 1 593.92 363.52A20.48 20.48 0 0 1 573.44 384zM655.36 384A20.48 20.48 0 0 1 634.88 363.52A20.48 20.48 0 0 1 655.36 343.04A20.48 20.48 0 0 1 675.84 363.52A20.48 20.48 0 0 1 655.36 384zM81.92 302.0800000000001A20.48 20.48 0 0 1 61.44 281.6A20.48 20.48 0 0 1 81.92 261.12A20.48 20.48 0 0 1 102.4 281.6A20.48 20.48 0 0 1 81.92 302.0800000000001zM655.36 302.0800000000001A20.48 20.48 0 0 1 634.88 281.6A20.48 20.48 0 0 1 655.36 261.12A20.48 20.48 0 0 1 675.84 281.6A20.48 20.48 0 0 1 655.36 302.0800000000001zM81.92 220.16A20.48 20.48 0 0 1 61.44 199.68A20.48 20.48 0 0 1 81.92 179.1999999999999A20.48 20.48 0 0 1 102.4 199.68A20.48 20.48 0 0 1 81.92 220.16zM655.36 220.16A20.48 20.48 0 0 1 634.88 199.68A20.48 20.48 0 0 1 655.36 179.1999999999999A20.48 20.48 0 0 1 675.84 199.68A20.48 20.48 0 0 1 655.36 220.16zM81.92 138.24A20.48 20.48 0 0 1 61.44 117.76A20.48 20.48 0 0 1 81.92 97.28A20.48 20.48 0 0 1 102.4 117.76A20.48 20.48 0 0 1 81.92 138.24zM655.36 138.24A20.48 20.48 0 0 1 634.88 117.76A20.48 20.48 0 0 1 655.36 97.28A20.48 20.48 0 0 1 675.84 117.76A20.48 20.48 0 0 1 655.36 138.24zM81.92 56.3199999999999A20.48 20.48 0 0 1 61.44 35.84A20.48 20.48 0 0 1 81.92 15.36A20.48 20.48 0 0 1 102.4 35.84A20.48 20.48 0 0 1 81.92 56.3199999999999zM655.36 56.3199999999999A20.48 20.48 0 0 1 634.88 35.84A20.48 20.48 0 0 1 655.36 15.36A20.48 20.48 0 0 1 675.84 35.84A20.48 20.48 0 0 1 655.36 56.3199999999999zM81.92 -25.6A20.48 20.48 0 0 1 61.44 -46.08A20.48 20.48 0 0 1 81.92 -66.5600000000001A20.48 20.48 0 0 1 102.4 -46.08A20.48 20.48 0 0 1 81.92 -25.6zM163.84 -25.6A20.48 20.48 0 0 1 143.36 -46.08A20.48 20.48 0 0 1 163.84 -66.5600000000001A20.48 20.48 0 0 1 184.32 -46.08A20.48 20.48 0 0 1 163.84 -25.6zM245.76 -25.6A20.48 20.48 0 0 1 225.28 -46.08A20.48 20.48 0 0 1 245.76 -66.5600000000001A20.48 20.48 0 0 1 266.24 -46.08A20.48 20.48 0 0 1 245.76 -25.6zM327.68 -25.6A20.48 20.48 0 0 1 307.2 -46.08A20.48 20.48 0 0 1 327.68 -66.5600000000001A20.48 20.48 0 0 1 348.1600000000001 -46.08A20.48 20.48 0 0 1 327.68 -25.6zM409.6 -25.6A20.48 20.48 0 0 1 389.12 -46.08A20.48 20.48 0 0 1 409.6 -66.5600000000001A20.48 20.48 0 0 1 430.08 -46.08A20.48 20.48 0 0 1 409.6 -25.6zM491.52 -25.6A20.48 20.48 0 0 1 471.04 -46.08A20.48 20.48 0 0 1 491.52 -66.5600000000001A20.48 20.48 0 0 1 512 -46.08A20.48 20.48 0 0 1 491.52 -25.6zM573.44 -25.6A20.48 20.48 0 0 1 552.96 -46.08A20.48 20.48 0 0 1 573.44 -66.5600000000001A20.48 20.48 0 0 1 593.92 -46.08A20.48 20.48 0 0 1 573.44 -25.6zM655.36 -25.6A20.48 20.48 0 0 1 634.88 -46.08A20.48 20.48 0 0 1 655.36 -66.5600000000001A20.48 20.48 0 0 1 675.84 -46.08A20.48 20.48 0 0 1 655.36 -25.6z" />
    <glyph glyph-name="web-advertising"
      unicode="&#xF10C;"
      horiz-adv-x="1024" d="M102.08 793.6C68.36992 793.6 40.96 766.19008 40.96 732.48L40.96 670.72L983.04 670.72L983.04 732.48C983.04 766.19008 955.63008 793.6 921.92 793.6L102.08 793.6zM122.88 752.64C134.18496 752.64 143.36 743.46496 143.36 732.16C143.36 720.85504 134.18496 711.6800000000001 122.88 711.6800000000001C111.57504 711.6800000000001 102.4 720.85504 102.4 732.16C102.4 743.46496 111.57504 752.64 122.88 752.64zM184.32 752.64C195.62496 752.64 204.8 743.46496 204.8 732.16C204.8 720.85504 195.62496 711.6800000000001 184.32 711.6800000000001C173.01504 711.6800000000001 163.84 720.85504 163.84 732.16C163.84 743.46496 173.01504 752.64 184.32 752.64zM245.76 752.64C257.06496 752.64 266.24 743.46496 266.24 732.16C266.24 720.85504 257.06496 711.6800000000001 245.76 711.6800000000001C234.4550400000001 711.6800000000001 225.28 720.85504 225.28 732.16C225.28 743.46496 234.4550400000001 752.64 245.76 752.64zM40.96 629.76L40.96 35.52C40.96 1.8099199999999 68.36992 -25.6 102.08 -25.6L921.92 -25.6C955.63008 -25.6 983.04 1.8099199999999 983.04 35.52L983.04 629.76L40.96 629.76zM368.64 588.8C379.94496 588.8 389.12 579.62496 389.12 568.3199999999999C389.12 557.01504 379.94496 547.8399999999999 368.64 547.8399999999999C357.33504 547.8399999999999 348.1600000000001 557.01504 348.1600000000001 568.3199999999999C348.1600000000001 579.62496 357.33504 588.8 368.64 588.8zM513.48000768 547.8399999999999L552.7199948800001 547.8399999999999L615.64000256 302.0800000000001L573.44 302.0800000000001L563.72000768 343.04L502.08 343.04L492.76000256 302.0800000000001L450.56 302.0800000000001L513.48000768 547.8399999999999zM634.88 547.8399999999999L655.36 547.8399999999999C707.1744 547.8399999999999 757.76 538.35776 757.76 424.96C757.76 311.56224 707.1744 302.0800000000001 655.36 302.0800000000001L634.88 302.0800000000001L634.88 547.8399999999999zM839.6800000000001 547.8399999999999C870.13376 547.8399999999999 890.51009024 529.1587174399999 897.76001024 518.11999744L863.51998976 495.64000256C863.3766297600001 495.82432256 855.32672 506.88 839.6800000000001 506.88C830.4639999999999 506.63424 819.2 502.90688 819.2 486.4C819.2 474.37824 838.55519744 455.00479488 854.11999744 439.4399948800001C877.2623974400001 416.29759488 901.12 392.47872 901.12 363.52C901.12 318.4435199999999 864.3788800000001 302.0800000000001 839.6800000000001 302.0800000000001C809.22624 302.0800000000001 788.8499097600001 320.7612825600001 781.5999897600001 331.80000256L815.64000256 354.56C815.9881625600001 354.0889600000001 824.03328 343.04 839.6800000000001 343.04C848.8960000000001 343.28576 860.16 347.01312 860.16 363.52C860.16 375.5008000000001 840.80480256 394.87520768 825.24000256 410.44000768C802.1180825600001 433.56192768 778.24 457.40032 778.24 486.4C778.24 531.47648 814.9811199999999 547.8399999999999 839.6800000000001 547.8399999999999zM368.64 527.36C379.94496 527.36 389.12 518.18496 389.12 506.88C389.12 495.57504 379.94496 486.4 368.64 486.4C357.33504 486.4 348.1600000000001 495.57504 348.1600000000001 506.88C348.1600000000001 518.18496 357.33504 527.36 368.64 527.36zM675.84 506.27999744L675.84 343.64000256C701.7676799999999 346.0976025600001 716.8000000000001 358.93151744 716.8000000000001 424.99999744C716.8000000000001 491.06847744 701.7676799999999 503.82239744 675.84 506.27999744zM532.23999488 475.59999488L511.39999744 384L553.99999488 384L532.23999488 475.59999488zM368.64 465.92C379.94496 465.92 389.12 456.74496 389.12 445.44C389.12 434.13504 379.94496 424.96 368.64 424.96C357.33504 424.96 348.1600000000001 434.13504 348.1600000000001 445.44C348.1600000000001 456.74496 357.33504 465.92 368.64 465.92zM368.64 404.48C379.94496 404.48 389.12 395.30496 389.12 384C389.12 372.69504 379.94496 363.52 368.64 363.52C357.33504 363.52 348.1600000000001 372.69504 348.1600000000001 384C348.1600000000001 395.30496 357.33504 404.48 368.64 404.48zM368.64 343.04C379.94496 343.04 389.12 333.86496 389.12 322.56C389.12 311.25504 379.94496 302.0800000000001 368.64 302.0800000000001C357.33504 302.0800000000001 348.1600000000001 311.25504 348.1600000000001 322.56C348.1600000000001 333.86496 357.33504 343.04 368.64 343.04zM368.64 281.6C379.94496 281.6 389.12 272.42496 389.12 261.12C389.12 249.81504 379.94496 240.64 368.64 240.64C357.33504 240.64 348.1600000000001 249.81504 348.1600000000001 261.12C348.1600000000001 272.42496 357.33504 281.6 368.64 281.6zM368.64 220.16C379.94496 220.16 389.12 210.98496 389.12 199.68C389.12 188.37504 379.94496 179.1999999999999 368.64 179.1999999999999C357.33504 179.1999999999999 348.1600000000001 188.37504 348.1600000000001 199.68C348.1600000000001 210.98496 357.33504 220.16 368.64 220.16zM430.08 220.16C441.38496 220.16 450.56 210.98496 450.56 199.68C450.56 188.37504 441.38496 179.1999999999999 430.08 179.1999999999999C418.77504 179.1999999999999 409.6 188.37504 409.6 199.68C409.6 210.98496 418.77504 220.16 430.08 220.16zM491.52 220.16C502.82496 220.16 512 210.98496 512 199.68C512 188.37504 502.82496 179.1999999999999 491.52 179.1999999999999C480.21504 179.1999999999999 471.04 188.37504 471.04 199.68C471.04 210.98496 480.21504 220.16 491.52 220.16zM552.96 220.16C564.26496 220.16 573.44 210.98496 573.44 199.68C573.44 188.37504 564.26496 179.1999999999999 552.96 179.1999999999999C541.65504 179.1999999999999 532.48 188.37504 532.48 199.68C532.48 210.98496 541.65504 220.16 552.96 220.16zM614.4 220.16C625.70496 220.16 634.88 210.98496 634.88 199.68C634.88 188.37504 625.70496 179.1999999999999 614.4 179.1999999999999C603.09504 179.1999999999999 593.92 188.37504 593.92 199.68C593.92 210.98496 603.09504 220.16 614.4 220.16zM675.84 220.16C687.14496 220.16 696.32 210.98496 696.32 199.68C696.32 188.37504 687.14496 179.1999999999999 675.84 179.1999999999999C664.53504 179.1999999999999 655.36 188.37504 655.36 199.68C655.36 210.98496 664.53504 220.16 675.84 220.16zM737.28 220.16C748.58496 220.16 757.76 210.98496 757.76 199.68C757.76 188.37504 748.58496 179.1999999999999 737.28 179.1999999999999C725.97504 179.1999999999999 716.8000000000001 188.37504 716.8000000000001 199.68C716.8000000000001 210.98496 725.97504 220.16 737.28 220.16zM798.72 220.16C810.02496 220.16 819.2 210.98496 819.2 199.68C819.2 188.37504 810.02496 179.1999999999999 798.72 179.1999999999999C787.41504 179.1999999999999 778.24 188.37504 778.24 199.68C778.24 210.98496 787.41504 220.16 798.72 220.16zM860.16 220.16C871.46496 220.16 880.64 210.98496 880.64 199.68C880.64 188.37504 871.46496 179.1999999999999 860.16 179.1999999999999C848.85504 179.1999999999999 839.6800000000001 188.37504 839.6800000000001 199.68C839.6800000000001 210.98496 848.85504 220.16 860.16 220.16zM921.6 220.16C932.90496 220.16 942.08 210.98496 942.08 199.68C942.08 188.37504 932.90496 179.1999999999999 921.6 179.1999999999999C910.29504 179.1999999999999 901.12 188.37504 901.12 199.68C901.12 210.98496 910.29504 220.16 921.6 220.16z" />
    <glyph glyph-name="open-in-popup"
      unicode="&#xF10D;"
      horiz-adv-x="1024" d="M778.24 773.12L245.76 773.12C210.95999488 773.12 184.32 746.48000512 184.32 711.6800000000001L184.32 23.83998976L503.52001024 343.04L327.68 343.04L327.68 384L573.44 384L573.44 138.24L532.48 138.24L532.48 314.07998976L213.28001024 -5.12L778.24 -5.12C813.04000512 -5.12 839.6800000000001 21.51999488 839.6800000000001 56.3199999999999L839.6800000000001 711.6800000000001C839.6800000000001 746.48000512 813.04000512 773.12 778.24 773.12z" />
    <glyph glyph-name="responsive"
      unicode="&#xF10E;"
      horiz-adv-x="1024" d="M102.4 793.6C68.72000512 793.6 40.96 765.83999488 40.96 732.16L40.96 158.72C40.96 125.0400051199999 68.72000512 97.28 102.4 97.28L921.6 97.28C955.27999488 97.28 983.04 125.0400051199999 983.04 158.72L983.04 732.16C983.04 765.83999488 955.27999488 793.6 921.6 793.6zM102.4 752.64L921.6 752.64C933.19999488 752.64 942.08 743.75999488 942.08 732.16L942.08 158.72C942.08 147.12000512 933.19999488 138.24 921.6 138.24L102.4 138.24C90.80000512 138.24 81.92 147.12000512 81.92 158.72L81.92 732.16C81.92 743.75999488 90.80000512 752.64 102.4 752.64zM184.32 629.76C161.76001024 629.76 143.36 611.35998976 143.36 588.8L143.36 322.56C143.36 299.9999897600001 161.76001024 281.6 184.32 281.6L307.2 281.6C329.76001024 281.6 348.1600000000001 299.9999897600001 348.1600000000001 322.56L348.1600000000001 588.8C348.1600000000001 611.35998976 329.76001024 629.76 307.2 629.76zM471.04 629.76C448.48001024 629.76 430.08 611.35998976 430.08 588.8L430.08 322.56C430.08 299.9999897600001 448.48001024 281.6 471.04 281.6L839.6800000000001 281.6C862.24001024 281.6 880.64 299.9999897600001 880.64 322.56L880.64 588.8C880.64 611.35998976 862.24001024 629.76 839.6800000000001 629.76zM245.76 384C257.03999488 384 266.24 374.79999488 266.24 363.52C266.24 352.24000512 257.03999488 343.04 245.76 343.04C234.48000512 343.04 225.28 352.24000512 225.28 363.52C225.28 374.79999488 234.48000512 384 245.76 384zM655.36 384C666.63999488 384 675.84 374.79999488 675.84 363.52C675.84 352.24000512 666.63999488 343.04 655.36 343.04C644.08000512 343.04 634.88 352.24000512 634.88 363.52C634.88 374.79999488 644.08000512 384 655.36 384zM512 199.68C500.72000512 199.68 491.52 190.4799948800001 491.52 179.1999999999999C491.52 167.9200051199999 500.72000512 158.72 512 158.72C523.27999488 158.72 532.48 167.9200051199999 532.48 179.1999999999999C532.48 190.4799948800001 523.27999488 199.68 512 199.68zM409.6 76.8L409.6 15.36L368.64 15.36C334.7999948800001 15.36 307.2 -12.23999488 307.2 -46.08L307.2 -66.5600000000001L716.8000000000001 -66.5600000000001L716.8000000000001 -46.08C716.8000000000001 -12.23999488 689.20000512 15.36 655.36 15.36L614.4 15.36L614.4 76.8z" />
    <glyph glyph-name="copy-to-clipboard"
      unicode="&#xF10F;"
      horiz-adv-x="1024" d="M307.2 896C284.8 896 266.24 877.44 266.24 855.04L122.88 855.04C89.03999488 855.04 61.44 827.44000512 61.44 793.6L61.44 56.3199999999999C61.44 22.4799948800001 89.03999488 -5.12 122.88 -5.12L430.08 -5.12L430.08 35.84L471.04 35.84L471.04 -5.12L737.28 -5.12C771.12000512 -5.12 798.72 22.4799948800001 798.72 56.3199999999999L798.72 568.3199999999999L757.76 568.3199999999999L757.76 609.28L798.72 609.28L798.72 793.6C798.72 827.44000512 771.12000512 855.04 737.28 855.04L593.92 855.04C593.92 877.44 575.36 896 552.96 896zM307.2 855.04L552.96 855.04L552.96 793.6C552.96 782.00000512 544.0799948800001 773.12 532.48 773.12L327.68 773.12C316.08000512 773.12 307.2 782.00000512 307.2 793.6zM430.08 609.28L471.04 609.28L471.04 568.3199999999999L430.08 568.3199999999999zM512 609.28L552.96 609.28L552.96 568.3199999999999L512 568.3199999999999zM593.92 609.28L634.88 609.28L634.88 568.3199999999999L593.92 568.3199999999999zM675.84 609.28L716.8000000000001 609.28L716.8000000000001 568.3199999999999L675.84 568.3199999999999zM839.6800000000001 609.28L839.6800000000001 568.3199999999999L880.64 568.3199999999999L880.64 609.28zM921.6 609.28L921.6 568.3199999999999L962.56 568.3199999999999L962.56 609.28zM430.08 527.36L471.04 527.36L471.04 486.4L430.08 486.4zM921.6 527.36L921.6 486.4L962.56 486.4L962.56 527.36zM430.08 445.44L471.04 445.44L471.04 404.48L430.08 404.48zM921.6 445.44L921.6 404.48L962.56 404.48L962.56 445.44zM430.08 363.52L471.04 363.52L471.04 322.56L430.08 322.56zM921.6 363.52L921.6 322.56L962.56 322.56L962.56 363.52zM430.08 281.6L471.04 281.6L471.04 240.64L430.08 240.64zM921.6 281.6L921.6 240.64L962.56 240.64L962.56 281.6zM430.08 199.68L471.04 199.68L471.04 158.72L430.08 158.72zM921.6 199.68L921.6 158.72L962.56 158.72L962.56 199.68zM430.08 117.76L471.04 117.76L471.04 76.8L430.08 76.8zM921.6 117.76L921.6 76.8L962.56 76.8L962.56 117.76zM921.6 35.84L921.6 -5.12L962.56 -5.12L962.56 35.84zM430.08 -46.08L430.08 -87.04L471.04 -87.04L471.04 -46.08zM512 -46.08L512 -87.04L552.96 -87.04L552.96 -46.08zM593.92 -46.08L593.92 -87.04L634.88 -87.04L634.88 -46.08zM675.84 -46.08L675.84 -87.04L716.8000000000001 -87.04L716.8000000000001 -46.08zM757.76 -46.08L757.76 -87.04L798.72 -87.04L798.72 -46.08zM839.6800000000001 -46.08L839.6800000000001 -87.04L880.64 -87.04L880.64 -46.08zM921.6 -46.08L921.6 -87.04L962.56 -87.04L962.56 -46.08z" />
    <glyph glyph-name="login"
      unicode="&#xF110;"
      horiz-adv-x="1024" d="M512.35999744 855.399999488C316.14767104 855.399999488 147.708452864 734.8967526399999 77.080000512 563.8000025599999A40.964096 40.964096 0 1 1 152.8 532.55999488C211.11363584 673.82421504 349.63986432 773.479999488 512.35999744 773.479999488C727.75069696 773.479999488 901.47999744 599.7506969599999 901.47999744 384.35999744C901.47999744 168.9692979199999 727.75069696 -4.76000256 512.35999744 -4.76000256C349.66224896 -4.76000256 211.11246848 94.8586291199999 152.8 236.12000256A40.964096 40.964096 0 1 1 77.080000512 204.87999488C147.709620224 33.78040832 316.16622592 -86.68000256 512.35999744 -86.68000256C772.02337792 -86.68000256 983.39999744 124.6966169599999 983.39999744 384.35999744C983.39999744 644.02337792 772.02337792 855.399999488 512.35999744 855.399999488zM552.20000768 569.07999232A40.964096 40.964096 0 0 1 523.63999232 498.7600076799999L597.08000256 425.31999744L81.560000512 425.31999744A40.964096 40.964096 0 1 1 81.560000512 343.39999744L597.08000256 343.39999744L523.63999232 269.96000768A40.964096 40.964096 0 1 1 581.55999232 212.0400076799999L724.91999232 355.40000768A40.964096 40.964096 0 0 1 724.91999232 413.32000768L581.55999232 556.68000768A40.964096 40.964096 0 0 1 552.20000768 569.07999232z" />
    <glyph glyph-name="facebook"
      unicode="&#xF111;"
      horiz-adv-x="1024" d="M512 834.56C263.168 834.56 61.44 632.832 61.44 384C61.44 158.1056 227.84 -28.40576 444.66176 -60.9894400000001V264.58112H333.18912V383.0169600000001H444.66176V461.824C444.66176 592.3020799999999 508.2316799999999 649.58464 616.67328 649.58464C668.61056 649.58464 696.07424 645.7344 709.07904 643.97312V540.59008H635.1052799999999C589.0662399999999 540.59008 572.98944 496.9472 572.98944 447.75424V383.01696H707.9116799999999L689.6025599999999 264.58112H572.98944V-61.9520000000001C792.90368 -32.1126399999999 962.56 155.91424 962.56 384C962.56 632.832 760.832 834.56 512 834.56z" />
    <glyph glyph-name="twitter-circled"
      unicode="&#xF112;"
      horiz-adv-x="1024" d="M512 855.04C252.25216 855.04 40.96 643.74784 40.96 384S252.25216 -87.04 512 -87.04S983.04 124.25216 983.04 384S771.74784 855.04 512 855.04zM742.13376 475.66848C742.33856 470.8352 742.46144 465.92 742.46144 460.98432C742.46144 311.11168 628.3264 138.24 419.65568 138.24C355.59424 138.24 295.936 157.02016 245.76 189.21472C254.62784 188.1497599999999 263.61856 187.63776 272.81408 187.63776C325.98016 187.63776 374.90688 205.74208 413.696 236.17536C364.05248 237.0764799999999 322.19136 269.94688 307.712 314.96192C314.65472 313.6307199999999 321.76128 312.91392 329.09312 312.91392C339.43552 312.91392 349.4707200000001 314.28608 358.95296 316.9075199999999C307.0976 327.3727999999999 268.00128 373.16608 268.00128 428.15488C268.00128 428.6464 268.00128 429.11744 268.00128 429.58848C283.29984 421.08928 300.76928 415.96928 319.3856 415.37536C288.91136 435.7529600000001 268.92288 470.44608 268.92288 509.80864C268.92288 530.59584 274.49344 550.07232 284.2624 566.86592C340.23424 498.23744 423.8336 453.07904 518.10304 448.3276800000001C516.15744 456.64256 515.13344 465.28512 515.13344 474.17344C515.13344 536.82176 565.92384 587.61216 628.59264 587.61216C661.2172800000001 587.61216 690.6879999999999 573.8496 711.3728 551.79264C737.19808 556.87168 761.50784 566.31296 783.4214400000001 579.29728C774.9632000000001 552.8371199999999 756.96128 530.59584 733.5116800000001 516.54656C756.4902400000001 519.33184 778.3219200000001 525.39392 798.6995200000001 534.4256C783.5033599999999 511.67232 764.27264 491.66336 742.13376 475.66848z" />
    <glyph glyph-name="youtube"
      unicode="&#xF113;"
      horiz-adv-x="1024" d="M266.24 793.6L327.68 609.28L327.68 486.4L368.64 486.4L368.64 609.28L430.08 793.6L389.12 793.6L348.1600000000001 670.72L307.2 793.6zM491.52 711.6800000000001C469.68000512 711.6800000000001 458.95999488 708.23999488 445.60001024 697.28C432.80001024 686.47999488 429.28001024 678.15999488 430.08 650.24L430.08 547.8399999999999C430.08 527.4399948800001 433.44001024 513.99999488 445.76 502.08C458.56 490.16000512 470.64000512 486.4 491.52 486.4C513.35999488 486.4 525.28001024 490.16000512 537.6 502.08C550.4 513.52000512 552.96 527.4399948800001 552.96 547.8399999999999L552.96 650.24C552.96 668.31998976 549.76 685.44 537.35999488 696.88000512C524.55999488 708.6399897599999 511.36 711.6800000000001 491.52 711.6800000000001zM593.92 711.6800000000001L593.92 527.36C593.92 507.44000512 614.00000512 486.4 634.88 486.4C655.75999488 486.4 666.80000512 496.88000512 675.84 506.88L675.84 486.4L716.8000000000001 486.4L716.8000000000001 711.6800000000001L675.84 711.6800000000001L675.84 547.8399999999999C675.59999488 533.83999488 659.12000512 527.36 655.36 527.36C651.12000512 527.36 634.88 528.24000512 634.88 547.8399999999999L634.88 711.6800000000001zM491.52 670.72C497.67999488 670.72 512 670.79999488 512 650.24L512 547.8399999999999C512 528 498.16000512 527.36 491.52 527.36C485.36000512 527.36 471.04 527.60000512 471.04 547.8399999999999L471.04 650.24C471.04 666.9599948800001 479.92000512 670.72 491.52 670.72zM204.8 445.44C131.2 445.44 81.92 396.63998976 81.92 322.56L81.92 128C81.92 53.91998976 131.2 -5.12 204.8 -5.12L819.2 -5.12C892.8000000000001 -5.12 942.08 43.67998976 942.08 117.76L942.08 322.56C942.08 396.63998976 892.8000000000001 445.44 819.2 445.44zM245.76 363.52L368.64 363.52L368.64 322.56L327.68 322.56L327.68 76.8L286.7200000000001 76.8L286.7200000000001 322.56L245.76 322.56zM532.48 363.52L573.44 363.52L573.44 281.6C578.16000512 288.9600000000001 585.20000512 294.79999488 591.92000512 298.07998976C598.47999488 301.44 605.12 303.36 611.84 303.36C625.1200102399999 303.36 635.52 298.56 642.63999488 289.6C649.76001024 280.5600051200001 655.36 268.55999488 655.36 250.88L655.36 128C655.36 112.79998976 650.24 103.36 643.52 95.2800051199999C636.96001024 87.19998976 627.12000512 76.95998976 614.4 76.8C592.88000512 76.55999488 581.36000512 88.07999488 573.44 97.28L573.44 76.8L532.48 76.8zM368.64 302.0800000000001L409.6 302.0800000000001L409.6 138.24C409.6 133.51999488 415.1199948800001 117.59998976 430.08 117.76C446.7200000000001 117.91998976 446.88001024 133.44 450.56 138.24L450.56 302.0800000000001L491.52 302.0800000000001L491.52 76.8L450.56 76.8L450.56 97.28C442.95999488 88.3199999999999 439.04 85.51999488 430.4799948800001 81.28C422.00000512 76.48 413.36000512 76.8 405.36000512 76.8C395.44000512 76.8 384.16001024 85.76 378.88 92.48C374.15999488 98.63999488 368.64 104.96 368.64 117.76zM741.36000512 302.0800000000001C760.80001024 302.0800000000001 774.47999488 297.92 784.80001024 287.04C795.36001024 276.16 798.72 263.43999488 798.72 242.95999488L798.72 179.1999999999999L716.8000000000001 179.1999999999999L716.8000000000001 147.52C716.8000000000001 136.07999488 718.32000512 128.79998976 721.28 124.48C724.08000512 119.75999488 729.76001024 117.6800051199999 737.28 117.76C745.6 117.83999488 750.8800102399999 119.5199897600001 753.67999488 123.27999488C756.55999488 126.64000512 757.76 136.15998976 757.76 148.48L757.76 158.72L798.72 158.72L798.72 146.56C798.72 124.2399948800001 796.96001024 107.5999948799999 785.9200000000001 96.71999488C775.52001024 85.27998976 759.28000512 80 737.99999488 80C718.56001024 80 703.36 85.76 692.48 97.6C681.6 109.4399999999999 675.91999488 125.6800051199999 675.91999488 146.56L675.91999488 242.95999488C675.91999488 261.51999488 682.40001024 275.27999488 694.32000512 287.5199897600001C703.92000512 297.3599948800001 721.92 302.0800000000001 741.36000512 302.0800000000001zM593.92 271.36C582.64000512 271.36 573.60001024 261.19999488 573.44 250.88L573.44 128C573.60001024 122.07998976 582.64000512 117.76 593.92 117.76C605.1999948800001 117.76 614.4 126.4799948800001 614.4 137.7599897600001L614.4 240.64C614.4 261.12 605.1999948800001 271.36 593.92 271.36zM737.28 261.12C726.00000512 261.12 716.96001024 251.5999948800001 716.8000000000001 240.64L716.8000000000001 220.16L757.76 220.16L757.76 240.64C757.76 253.19999488 748.55999488 261.12 737.28 261.12z" />
    <glyph glyph-name="youtube-squared"
      unicode="&#xF114;"
      horiz-adv-x="1024" d="M184.32 814.08C127.7952 814.08 81.92 768.2048 81.92 711.6800000000001L81.92 56.3199999999999C81.92 -0.2048 127.7952 -46.08 184.32 -46.08L839.6800000000001 -46.08C896.2048 -46.08 942.08 -0.2048 942.08 56.3199999999999L942.08 711.6800000000001C942.08 768.2048 896.2048 814.08 839.6800000000001 814.08L184.32 814.08zM307.2 732.16L356.36000768 732.16L389.12 650.24L421.8799923200001 732.16L471.04 732.16L409.6 588.8L409.6 506.88L368.64 506.88L368.64 589.00000768C356.352 621.97280768 315.5968000000001 711.4752 307.2 732.16zM512 670.72C530.2272 670.72 548.25119744 665.2063948800001 559.71999744 651.27999488C568.52639744 641.24479488 573.44 625.05920512 573.44 603.76000512L573.44 573.83999488C573.44 552.54079488 569.36159232 537.79519488 560.75999232 527.75999488C549.2911923199999 514.0383948799999 530.2272 506.88 512 506.88C493.7728 506.88 475.1488 514.0383948799999 463.68 527.75999488C454.8736 537.79519488 450.56 552.54079488 450.56 573.83999488L450.56 603.55999744C450.56 624.85919744 455.26880256 641.24479488 464.28000256 651.27999488C475.74880256 665.2063948800001 491.3152 670.72 512 670.72zM593.92 670.72L634.88 670.72L634.88 547.8399999999999C635.904 542.3104000000001 641.8304 539.8399999999999 647.36 539.8399999999999C655.7568 539.8399999999999 666.4192 549.66560768 675.84 560.5200076799999L675.84 670.72L716.8000000000001 670.72L716.8000000000001 506.88L675.84 506.88L675.84 535.15999232C659.2511999999999 518.98079232 645.11680512 506.86560256 626.48000512 507.48000256C612.96320512 507.88960256 603.55039232 512.8095948800001 598.8399923200001 522.63999488C595.97279232 528.37439488 593.92 537.60319488 593.92 551.1199948799999L593.92 670.72zM512 637.55999232C509.184 637.55999232 506.48799232 636.9423974399999 504.03999744 635.87999744C501.59200256 634.81759744 499.37600512 633.29439744 497.52000512 631.39999744C495.66400512 629.50559744 494.15999488 627.25599232 493.12 624.75999232C492.08000512 622.2639923199999 491.52 619.5072 491.52 616.64L491.52 559.1199948799999C491.52 553.38559488 493.80800512 548.14879744 497.52000512 544.3599974399999C499.37600512 542.46559744 501.59200256 540.9423974399999 504.03999744 539.87999744C506.48799232 538.8175974400001 509.184 538.20000256 512 538.20000256C514.816 538.20000256 517.51200768 538.8175974400001 519.96000256 539.87999744C527.30400768 543.06719744 532.48 550.51839488 532.48 559.1199948799999L532.48 616.64C532.48 628.1088 523.264 637.55999232 512 637.55999232zM511.7999923200001 445.44L512.20000768 445.44C512.20000768 445.44 649.60960512 445.43361024 741.36000512 438.88001024C754.26240512 437.44638976 782.1343948800001 437.23999232 807.11999488 411.6399923200001C826.78079488 392.38879232 833.1200102399999 348.16 833.1200102399999 348.16C833.1200102399999 348.16 839.6800000000001 316.81439744 839.6800000000001 264.99999744L839.6800000000001 216.47998976C839.6800000000001 164.66558976 833.1200102399999 133.32000768 833.1200102399999 133.32000768C833.1200102399999 133.32000768 826.78079488 89.09119488 807.11999488 69.83999488C782.1343948800001 44.23999488 754.26240512 44.03359744 741.36000512 42.59999744C649.60960512 36.04639744 512 35.84 512 35.84C512 35.84 341.5888076800001 37.48478976 289.1600076800001 42.39998976C274.61920768 45.06241024 241.86560512 44.2448076799999 216.88000512 69.6400076799999C197.219198976 89.0960076800001 190.88 133.32000768 190.88 133.32000768C190.88 133.32000768 184.32 164.66558976 184.32 216.47998976L184.32 264.99999744C184.32 316.81439744 190.88 348.16 190.88 348.16C190.88 348.16 197.219201024 392.38879232 216.88000512 411.6399923200001C241.86560512 437.23999232 269.73759488 437.44641024 282.63999488 438.88001024C374.3903948800001 445.43361024 511.7999923200001 445.44 511.7999923200001 445.44zM245.76 363.52L245.76 322.9999923200001L286.7200000000001 322.9999923200001L286.7200000000001 117.76L327.68 117.76L327.68 322.9999923200001L368.64 322.9999923200001L368.64 363.52L245.76 363.52zM512 363.52L512 117.76L552.96 117.76L552.96 143.36C565.88288 127.3651200000001 582.71744 117.76 596.48 117.76C611.88096 117.76 625.31903488 126.0479897600001 630.47999488 141.92001024C632.91711488 150.50110976 634.7161600000001 158.5152000000001 634.88 176.64L634.88 232.9600000000001C634.88 253.1942399999999 632.14047232 268.43840512 629.55999232 277.04000512C624.39903232 293.03488512 611.90144 301.9776000000001 596.48 302.0800000000001C576.4096 302.2233600000001 568.32 291.8400000000001 552.96 273.92L552.96 363.52L512 363.52zM368.64 302.0800000000001L368.64 165.15999744C368.64 150.37343744 370.69760512 140.45216768 373.36000512 133.96000768C377.86560512 123.43328768 387.05278976 117.76 400.1599897600001 117.76C415.1103897600001 117.76 434.3808 128.2915123200001 450.56 145.71999232L450.56 117.76L491.52 117.76L491.52 302.0800000000001L450.56 302.0800000000001L450.56 173.6800051199999C441.5488 161.71968512 428.43199488 152.80001024 420.2399948800001 152.80001024C414.91519488 152.80001024 410.624 155.04224256 409.6 160.92000256L409.6 302.0800000000001L368.64 302.0800000000001zM717.40000256 302.0800000000001C696.75616256 302.0800000000001 680.6336102399999 295.58751232 668.95998976 283.31999232C660.35838976 274.26783232 655.36 259.4697625600001 655.36 240.28000256L655.36 177.48000768C655.36 158.41312768 660.8588800000001 145.0697523199999 669.44 136.1199923200001C681.1340799999999 123.85247232 697.2246425600001 117.76 718.36000256 117.76C739.47488256 117.76 756.09792512 124.17472512 767.28000512 137.20000512C772.1952051200001 142.95488512 775.34783488 149.4310297599999 776.7199948800001 156.6400102399999C777.0886348800001 159.89630976 778.24 168.7347199999999 778.24 179.1999999999999L737.28 179.1999999999999L737.28 162.84000256C737.28 153.3372825600001 728.10496 145.63999744 716.8000000000001 145.63999744C705.49504 145.63999744 696.32 153.35776256 696.32 162.84000256L696.32 199.68L778.24 199.68L778.24 211.48000256L778.24 241.07999232C778.24 260.2287923200001 773.5382425600001 274.24735232 765.08000256 283.31999232C753.7545625600001 295.58751232 737.67520256 302.0800000000001 717.40000256 302.0800000000001zM716.8000000000001 272.43999232C728.10496 272.43999232 737.28 264.72224768 737.28 255.24000768L737.28 228.0400076799999L696.32 228.0400076799999L696.32 255.24000768C696.32 264.7427276800001 705.49504 272.43999232 716.8000000000001 272.43999232zM577.95999744 266.31999488C589.12159744 266.31999488 593.92 259.4611200000001 593.92 238.0800000000001L593.92 181.76C593.92 160.3788800000001 589.12159744 152.99999744 577.95999744 152.99999744C571.59071744 152.99999744 559.43168 157.3683199999999 552.96 163.84L552.96 253.44C559.43168 259.82976 571.59071744 266.31999488 577.95999744 266.31999488z" />
    <glyph glyph-name="play-button"
      unicode="&#xF115;"
      horiz-adv-x="1024" d="M919.52001024 599.04C911.36 644.08000512 872.48001024 676.87999488 827.36001024 687.11999488C759.84001024 701.44 634.88 711.6800000000001 499.68001024 711.6800000000001C364.5599948800001 711.6800000000001 237.60001024 701.44 169.99999488 687.11999488C124.96001024 676.87999488 86.00000512 646.15999488 77.83999488 599.04C69.60001024 547.8399999999999 61.44 476.16 61.44 384C61.44 291.8400000000001 69.60001024 220.16 79.84001024 168.96C88.07999488 123.91999488 126.96000512 91.12000512 172.00001024 80.88000512C243.68001024 66.56 366.56001024 56.3199999999999 501.76 56.3199999999999C636.96001024 56.3199999999999 759.84001024 66.56 831.52001024 80.88000512C876.55999488 91.12000512 915.44000512 121.84000512 923.68001024 168.96C931.84 220.16 942.08 293.91998976 944.16001024 384C940.00001024 476.16 929.76001024 547.8399999999999 919.52001024 599.04zM389.12 240.64L389.12 527.36L638.96000512 384z" />
    <glyph glyph-name="vimeo"
      unicode="&#xF116;"
      horiz-adv-x="1024" d="M839.6800000000001 793.6C700.64001024 793.75998976 624 715.84 576.88000512 563.9999897600001C601.52000512 573.12 626.24 584.39999488 648.64 584.39999488C695.75999488 584.39999488 711.43999488 566.87998976 704.7199948800001 512.4799897600001C702.47999488 478.47999488 689.03999488 423.60000512 648.64 360.1599897600001C608.24000512 298.95999488 573.12 281.6 552.96 281.6C528.32 281.6 509.60001024 317.04000512 489.44001024 412.23999488C482.72001024 439.4399948800001 467.04001024 500.63998976 449.03999488 616.1599897599999C433.3599948800001 722.63999488 381.19999488 779.91999488 307.2 773.12C275.8400000000001 770.88 238.32000512 741.68000512 175.52001024 687.2800051199999C130.63999488 646.47999488 88.07999488 617.03999488 40.96 576.24000512L85.83999488 518.72C128.39999488 548.16 153.12001024 559.51998976 159.84001024 559.51998976C191.20001024 559.51998976 220.32001024 509.68000512 249.52000512 407.68C274.16000512 314.8000051199999 301.04000512 221.91998976 325.76 129.03999488C363.8400000000001 27.03998976 410.95999488 -22.79999488 464.80001024 -22.79999488C554.48000512 -22.79999488 662.08 58.71998976 789.92001024 226.3999897600001C915.44000512 385.03999488 978.56 516.4000051200001 983.04 609.28C987.52 731.5999948799999 938.31999488 791.36 839.6800000000001 793.6z" />
    <glyph glyph-name="expand-arrow"
      unicode="&#xF119;"
      horiz-adv-x="1024" d="M921.28 630.4C910.4 630.0799999999999 900.16 625.6 892.64001024 617.75998976L512 237.12L131.36001024 617.75998976C123.59999488 625.67999488 113.03999488 630.15999488 101.92001024 630.15999488C85.28001024 630.15999488 70.32000512 619.9999897600001 64.07999488 604.55999488C57.76001024 589.12 61.51999488 571.44000512 73.44001024 559.83998976L483.04001024 150.23998976C499.04001024 134.23998976 524.96001024 134.23998976 540.96001024 150.23998976L950.56001024 559.83998976C962.72001024 571.52 966.56001024 589.51999488 960 605.12C953.52000512 620.72000512 938.16000512 630.72 921.28 630.4z" />
    <glyph glyph-name="collapse-arrow"
      unicode="&#xF11A;"
      horiz-adv-x="1024" d="M511.36 629.76C500.72000512 629.59998976 490.56 625.28 483.04001024 617.75998976L73.44001024 208.15998976C62.72 197.91998976 58.40001024 182.64000512 62.15999488 168.24000512C65.92 153.92 77.12 142.72 91.44000512 138.95999488C105.84000512 135.19998976 121.12001024 139.52 131.36001024 150.23998976L512 530.88L892.64001024 150.23998976C902.88001024 139.52 918.15999488 135.19998976 932.55999488 138.95999488C946.88 142.72 958.08 153.92 961.84000512 168.24000512C965.60001024 182.64000512 961.28 197.91998976 950.56001024 208.15998976L540.96001024 617.75998976C533.12 625.6 522.48000512 629.9199897599999 511.36 629.76z" />
    <glyph glyph-name="right"
      unicode="&#xF11B;"
      horiz-adv-x="1024" d="M611.2 627.8399999999999C595.27999488 626.31999488 581.68000512 615.60000512 576.48001024 600.47998976C571.2 585.28 575.28000512 568.47998976 586.88 557.44L719.36 424.96L204.8 424.96C203.52 425.03999488 202.24 425.03999488 200.96 424.96C178.31999488 423.92000512 160.88000512 404.72000512 161.92 382.0800000000001C162.95999488 359.43999488 182.15999488 342.00000512 204.8 343.04L719.36 343.04L586.24 210.56C570.16000512 194.48000512 570.16000512 168.39999488 586.24 152.3199999999999C602.3199948800001 136.24000512 628.40000512 136.24000512 644.48 152.3199999999999L846.72 355.2000000000001L876.16 384L846.72 412.8L644.48 615.6800000000001C635.84 624.5600051199999 623.60000512 629.0400051199999 611.2 627.8399999999999z" />
    <glyph glyph-name="left"
      unicode="&#xF11C;"
      horiz-adv-x="1024" d="M408.32 630.4C397.60001024 630.00000512 387.52 625.3599948799999 380.1600000000001 617.5999999999999L177.92 412.8L149.76 384L177.92 355.2000000000001L380.1600000000001 150.4C396.08000512 134.15999488 422.15999488 133.83999488 438.4000000000001 149.76C454.64000512 165.6800051199999 454.96000512 191.75999488 439.04 208L305.2800000000001 343.04L819.2 343.04C833.99999488 342.79999488 847.6800000000001 350.55998976 855.11999488 363.35998976C862.64000512 376.07999488 862.64000512 391.92000512 855.11999488 404.63998976C847.6800000000001 417.43998976 833.99999488 425.20000512 819.2 424.96L305.2800000000001 424.96L439.04 560C451.36001024 571.91999488 455.04 590.15999488 448.16001024 605.9199897599999C441.2800000000001 621.59998976 425.44001024 631.36 408.32 630.4z" />
    <glyph glyph-name="down-arrow"
      unicode="&#xF11D;"
      horiz-adv-x="1024" d="M507.52 732.8C486.4 730.48000512 470.56001024 712.39999488 471.04 691.2L471.04 177.28L336 311.04C328.24000512 318.8799897600001 317.60001024 323.27999488 306.56 323.2C289.6 323.35998976 274.4000102400001 313.03999488 268.1600000000001 297.3599948800001C261.92001024 281.6 265.9999948800001 263.68 278.4000000000001 252.16L483.2 49.92L512 21.12L540.8 49.92L745.6 252.16C761.84000512 268.08000512 762.16000512 294.15999488 746.24 310.4C730.3199948800001 326.64000512 704.24000512 326.96000512 688 311.04L552.96 177.28L552.96 691.2C553.1200102399999 702.32000512 548.8000000000001 712.96 540.96001024 720.79998976C533.12 728.64 522.48000512 732.95998976 511.36 732.8C510.08 732.87999488 508.8 732.87999488 507.52 732.8z" />
    <glyph glyph-name="long-arrow-up"
      unicode="&#xF11E;"
      horiz-adv-x="1024" d="M512 875.03998976L279.36 659.84C268.40000512 649.99999488 263.5200102400001 634.9599948800001 266.72001024 620.48C269.92001024 606.0799999999999 280.64 594.48000512 294.7999948800001 590.15999488C308.9600102400001 585.84000512 324.3200102400001 589.44 335.04 599.6800000000001L471.04 725.51999488L471.04 -66.5600000000001C470.79999488 -81.35999488 478.56001024 -95.0400000000001 491.36001024 -102.47999488C504.07999488 -110.00000512 519.92000512 -110.00000512 532.64001024 -102.47999488C545.44001024 -95.0400000000001 553.20000512 -81.35999488 552.96 -66.5600000000001L552.96 725.51999488L688.96 599.6800000000001C699.68001024 589.44 715.04001024 585.84000512 729.20000512 590.15999488C743.36 594.48000512 754.08001024 606.0799999999999 757.28001024 620.48C760.48001024 634.9599948800001 755.59999488 649.99999488 744.64 659.84z" />
    <glyph glyph-name="back"
      unicode="&#xF120;"
      horiz-adv-x="1024" d="M716.0000102399999 834.95999488C705.35999488 834.63999488 695.28000512 830.15999488 687.84001024 822.55998976L278.24001024 412.9599897600001C262.24001024 396.9599897600001 262.24001024 371.0399897600001 278.24001024 355.0399897600001L687.84001024 -54.56001024C698.08001024 -65.28 713.35999488 -69.60001024 727.75999488 -65.84000512C742.08 -62.08 753.28 -50.88 757.04000512 -36.55999488C760.80001024 -22.15999488 756.48 -6.88001024 745.76001024 3.35998976L365.12 384L745.76001024 764.6399897599999C757.8399948800001 776.39999488 761.52000512 794.39998976 754.9599948800001 809.99999488C748.32001024 825.52000512 732.87999488 835.44000512 716.0000102399999 834.95999488z" />
    <glyph glyph-name="forward"
      unicode="&#xF121;"
      horiz-adv-x="1024" d="M306.80000512 834.95999488C290.0800102400001 834.95999488 275.12000512 824.79998976 268.8799948800001 809.3599948799999C262.56001024 793.92 266.31999488 776.24000512 278.24001024 764.6399897599999L658.88 384L278.24001024 3.35998976C267.52 -6.88001024 263.2000102400001 -22.15999488 266.95999488 -36.55999488C270.7200000000001 -50.88 281.92 -62.08 296.24000512 -65.84000512C310.64000512 -69.60001024 325.92001024 -65.28 336.16001024 -54.56001024L745.76001024 355.0399897600001C761.76001024 371.0399897600001 761.76001024 396.9599897600001 745.76001024 412.9599897600001L336.16001024 822.55998976C328.39999488 830.47999488 317.83999488 834.95999488 306.80000512 834.95999488z" />
    <glyph glyph-name="video"
      unicode="&#xF122;"
      horiz-adv-x="1024" d="M40.96 814.08C29.65504 814.08 20.48 804.90496 20.48 793.6L20.48 -25.6C20.48 -36.90496 29.65504 -46.08 40.96 -46.08L983.04 -46.08C994.34496 -46.08 1003.52 -36.90496 1003.52 -25.6L1003.52 793.6C1003.52 804.90496 994.34496 814.08 983.04 814.08L40.96 814.08zM61.44 773.12L122.88 773.12L122.88 711.6800000000001L61.44 711.6800000000001L61.44 773.12zM163.84 773.12L245.76 773.12L245.76 711.6800000000001L163.84 711.6800000000001L163.84 773.12zM286.7200000000001 773.12L368.64 773.12L368.64 711.6800000000001L286.7200000000001 711.6800000000001L286.7200000000001 773.12zM409.6 773.12L491.52 773.12L491.52 711.6800000000001L409.6 711.6800000000001L409.6 773.12zM532.48 773.12L614.4 773.12L614.4 711.6800000000001L532.48 711.6800000000001L532.48 773.12zM655.36 773.12L737.28 773.12L737.28 711.6800000000001L655.36 711.6800000000001L655.36 773.12zM778.24 773.12L860.16 773.12L860.16 711.6800000000001L778.24 711.6800000000001L778.24 773.12zM901.12 773.12L962.56 773.12L962.56 711.6800000000001L901.12 711.6800000000001L901.12 773.12zM430.08 506.88L634.88 384L430.08 261.12L430.08 506.88zM61.44 56.3199999999999L122.88 56.3199999999999L122.88 -5.12L61.44 -5.12L61.44 56.3199999999999zM163.84 56.3199999999999L245.76 56.3199999999999L245.76 -5.12L163.84 -5.12L163.84 56.3199999999999zM286.7200000000001 56.3199999999999L368.64 56.3199999999999L368.64 -5.12L286.7200000000001 -5.12L286.7200000000001 56.3199999999999zM409.6 56.3199999999999L491.52 56.3199999999999L491.52 -5.12L409.6 -5.12L409.6 56.3199999999999zM532.48 56.3199999999999L614.4 56.3199999999999L614.4 -5.12L532.48 -5.12L532.48 56.3199999999999zM655.36 56.3199999999999L737.28 56.3199999999999L737.28 -5.12L655.36 -5.12L655.36 56.3199999999999zM778.24 56.3199999999999L860.16 56.3199999999999L860.16 -5.12L778.24 -5.12L778.24 56.3199999999999zM901.12 56.3199999999999L962.56 56.3199999999999L962.56 -5.12L901.12 -5.12L901.12 56.3199999999999z" />
    <glyph glyph-name="video-playlist"
      unicode="&#xF123;"
      horiz-adv-x="1024" d="M262.4 793.6C251.12000512 792.56000512 242.80000512 782.47999488 243.84 771.2C244.8799948800001 759.92000512 254.96000512 751.60000512 266.24 752.64L757.76 752.64C765.12 752.56000512 772.0000102399999 756.4000051200001 775.75999488 762.80000512C779.44000512 769.20000512 779.44000512 777.03999488 775.75999488 783.43999488C772.0000102399999 789.83999488 765.12 793.67999488 757.76 793.6L266.24 793.6C265.6 793.6 264.96 793.6 264.32 793.6C263.68 793.6 263.04 793.6 262.4 793.6zM160 711.6800000000001C148.72000512 710.64000512 140.40000512 700.55999488 141.44 689.28C142.47999488 678.00000512 152.56000512 669.68000512 163.84 670.72L860.16 670.72C867.52 670.64000512 874.40001024 674.48000512 878.15999488 680.88000512C881.84000512 687.2800051199999 881.84000512 695.11999488 878.15999488 701.51999488C874.40001024 707.91999488 867.52 711.75999488 860.16 711.6800000000001L163.84 711.6800000000001C163.2 711.6800000000001 162.56 711.6800000000001 161.92 711.6800000000001C161.28 711.6800000000001 160.64 711.6800000000001 160 711.6800000000001zM61.44 629.76C50.08001024 629.76 40.96 620.55999488 40.96 609.28L40.96 -5.12C40.96 -16.39999488 50.08001024 -25.6 61.44 -25.6L962.56 -25.6C973.92001024 -25.6 983.04 -16.39999488 983.04 -5.12L983.04 609.28C983.04 620.55999488 973.92001024 629.76 962.56 629.76zM413.44 424.96L631.04 302.0800000000001L413.44 179.1999999999999z" />
    <glyph glyph-name="music-video"
      unicode="&#xF124;"
      horiz-adv-x="1024" d="M0 752.64L0 97.28L1024 97.28L1024 752.64zM511.36 629.12C580.08000512 629.12 602.5600000000001 588.16 675.84 588.16C688.96 588.16 696.32 584.7199948800001 696.32 568.96L696.32 506.24C696.32 486.79999488 676.48 487.68 676.48 487.68C603.04001024 487.68 595.04001024 527.36 542.08 527.36C533.8399948800001 527.36 532.48 520.39999488 532.48 506.24L532.48 302.0800000000001C532.48 274.3999897600001 527.43999488 220.16 450.56 220.16C373.68000512 220.16 368.64 257.03999488 368.64 281.6C368.64 318.0800000000001 392.07999488 343.04 450.56 343.04C491.52 343.04 491.52 361.1199897600001 491.52 384L491.52 609.9200000000001C491.52 620.8 494.88001024 629.12 511.36 629.12zM225.28 56.3199999999999C214.00000512 56.3199999999999 204.8 47.19998976 204.8 35.84C204.8 24.47998976 214.00000512 15.36 225.28 15.36L798.72 15.36C810.08001024 15.36 819.2 24.47998976 819.2 35.84C819.2 47.19998976 810.08001024 56.3199999999999 798.72 56.3199999999999z" />
    <glyph glyph-name="video-gallery"
      unicode="&#xF125;"
      horiz-adv-x="1024" d="M61.44 793.6C50.11456 793.6 40.96 784.44544 40.96 773.12L40.96 199.68C40.96 188.35456 50.11456 179.1999999999999 61.44 179.1999999999999L757.76 179.1999999999999C769.08544 179.1999999999999 778.24 188.35456 778.24 199.68L778.24 773.12C778.24 784.44544 769.08544 793.6 757.76 793.6L61.44 793.6zM81.92 752.64L143.36 752.64L143.36 691.2L81.92 691.2L81.92 752.64zM184.32 752.64L266.24 752.64L266.24 691.2L184.32 691.2L184.32 752.64zM307.2 752.64L389.12 752.64L389.12 691.2L307.2 691.2L307.2 752.64zM430.08 752.64L512 752.64L512 691.2L430.08 691.2L430.08 752.64zM552.96 752.64L634.88 752.64L634.88 691.2L552.96 691.2L552.96 752.64zM675.84 752.64L737.28 752.64L737.28 691.2L675.84 691.2L675.84 752.64zM819.2 691.2L819.2 650.24L839.6800000000001 650.24L839.6800000000001 117.76L184.32 117.76L184.32 138.24L143.36 138.24L143.36 97.28A20.482048 20.482048 0 0 1 163.84 76.8L860.16 76.8A20.482048 20.482048 0 0 1 880.64 97.28L880.64 670.72A20.482048 20.482048 0 0 1 860.16 691.2L819.2 691.2zM921.6 588.8L921.6 547.8399999999999L942.08 547.8399999999999L942.08 15.36L286.7200000000001 15.36L286.7200000000001 35.84L245.76 35.84L245.76 -5.12A20.482048 20.482048 0 0 1 266.24 -25.6L962.56 -25.6A20.482048 20.482048 0 0 1 983.04 -5.12L983.04 568.3199999999999A20.482048 20.482048 0 0 1 962.56 588.8L921.6 588.8zM348.1600000000001 568.3199999999999L491.52 486.4L348.1600000000001 404.48L348.1600000000001 568.3199999999999zM81.92 281.6L143.36 281.6L143.36 220.16L81.92 220.16L81.92 281.6zM184.32 281.6L266.24 281.6L266.24 220.16L184.32 220.16L184.32 281.6zM307.2 281.6L389.12 281.6L389.12 220.16L307.2 220.16L307.2 281.6zM430.08 281.6L512 281.6L512 220.16L430.08 220.16L430.08 281.6zM552.96 281.6L634.88 281.6L634.88 220.16L552.96 220.16L552.96 281.6zM675.84 281.6L737.28 281.6L737.28 220.16L675.84 220.16L675.84 281.6z" />
    <glyph glyph-name="circled-play"
      unicode="&#xF126;"
      horiz-adv-x="1024" d="M512 855.04C252.23999488 855.04 40.96 643.76000512 40.96 384C40.96 124.2399948800001 252.23999488 -87.04 512 -87.04C771.76000512 -87.04 983.04 124.2399948800001 983.04 384C983.04 643.76000512 771.76000512 855.04 512 855.04zM389.12 179.1999999999999L389.12 588.8L737.28 384z" />
    <glyph glyph-name="play"
      unicode="&#xF127;"
      horiz-adv-x="1024" d="M204.8 788.48L204.8 -20.4000051200001L892.32001024 384z" />
    <glyph glyph-name="pause-button"
      unicode="&#xF128;"
      horiz-adv-x="1024" d="M512 855.04C252.23999488 855.04 40.96 643.76000512 40.96 384C40.96 124.2399948800001 252.23999488 -87.04 512 -87.04C771.76000512 -87.04 983.04 124.2399948800001 983.04 384C983.04 643.76000512 771.76000512 855.04 512 855.04zM450.56 199.68L348.1600000000001 199.68L348.1600000000001 568.3199999999999L450.56 568.3199999999999zM675.84 199.68L573.44 199.68L573.44 568.3199999999999L675.84 568.3199999999999z" />
    <glyph glyph-name="pause"
      unicode="&#xF129;"
      horiz-adv-x="1024" d="M245.76 732.16L245.76 35.84L450.56 35.84L450.56 732.16zM573.44 732.16L573.44 35.84L778.24 35.84L778.24 732.16z" />
    <glyph glyph-name="stop"
      unicode="&#xF12A;"
      horiz-adv-x="1024" d="M163.84 732.16L163.84 35.84L860.16 35.84L860.16 732.16z" />
    <glyph glyph-name="stop-circled"
      unicode="&#xF12B;"
      horiz-adv-x="1024" d="M512 855.04C252.25216 855.04 40.96 643.72736 40.96 384C40.96 124.2726399999999 252.25216 -87.04 512 -87.04C771.74784 -87.04 983.04 124.2726399999999 983.04 384C983.04 643.72736 771.74784 855.04 512 855.04zM348.1600000000001 547.8399999999999L675.84 547.8399999999999L675.84 220.16L348.1600000000001 220.16L348.1600000000001 547.8399999999999z" />
    <glyph glyph-name="cancel"
      unicode="&#xF12C;"
      horiz-adv-x="1024" d="M512 834.56C263.5776 834.56 61.44 632.4224 61.44 384S263.5776 -66.5600000000001 512 -66.5600000000001S962.56 135.5776 962.56 384S760.4224 834.56 512 834.56zM690.3808 234.7008C698.368 226.7136000000001 698.368 213.6064 690.3808 205.6192C686.2848 201.7280000000001 681.1648 199.68 675.84 199.68S665.3952 201.7280000000001 661.2992 205.6192L512 354.9183999999999L362.7008 205.6192C358.6048 201.7280000000001 353.4848000000001 199.68 348.1600000000001 199.68S337.7152 201.7280000000001 333.6192 205.6192C325.632 213.6064 325.632 226.7136000000001 333.6192 234.7008L482.9184 384L333.6192 533.2991999999999C325.632 541.2864 325.632 554.3936 333.6192 562.3808C341.6064 570.3679999999999 354.7136 570.3679999999999 362.7008 562.3808L512 413.0816000000001L661.2992 562.3808C669.2864 570.3679999999999 682.3936 570.3679999999999 690.3808 562.3808C698.368 554.3936 698.368 541.2864 690.3808 533.2991999999999L541.0816000000001 384L690.3808 234.7008z" />
    <glyph glyph-name="plus"
      unicode="&#xF12D;"
      horiz-adv-x="1024" d="M512 855.04C252.25216 855.04 40.96 643.74784 40.96 384S252.25216 -87.04 512 -87.04S983.04 124.25216 983.04 384S771.74784 855.04 512 855.04zM757.76 363.52H532.48V138.24H491.52V363.52H266.24V404.48H491.52V629.76H532.48V404.48H757.76V363.52z" />
    <glyph glyph-name="zoom-in"
      unicode="&#xF12E;"
      horiz-adv-x="1024" d="M419.8400000000001 844.8C227.84 844.8 71.68 688.64 71.68 496.64C71.68 304.64 227.84 148.48 419.8400000000001 148.48C611.84 148.48 768 304.64 768 496.64C768 688.64 611.84 844.8 419.8400000000001 844.8zM399.36 660.48L440.32 660.48L440.32 517.12L583.6800000000001 517.12L583.6800000000001 476.16L440.32 476.16L440.32 332.8L399.36 332.8L399.36 476.16L256 476.16L256 517.12L399.36 517.12zM712.96 241.28C694.96000512 220.6399897600001 674.72001024 202.07998976 652.8000000000001 185.6L892.8000000000001 -54.4L950.4 3.1999999999999z" />
    <glyph glyph-name="minus"
      unicode="&#xF12F;"
      horiz-adv-x="1024" d="M512 855.04C252.27264 855.04 40.96 643.74784 40.96 384S252.27264 -87.04 512 -87.04S983.04 124.25216 983.04 384S771.7273600000001 855.04 512 855.04zM757.76 363.52H266.24V404.48H757.76V363.52z" />
    <glyph glyph-name="calendar"
      unicode="&#xF130;"
      horiz-adv-x="1024" d="M245.76 896C223.36 896 204.8 877.44 204.8 855.04L204.8 814.08L81.92 814.08C58.16000512 814.08 40.96 796.87999488 40.96 773.12L40.96 629.76L983.04 629.76L983.04 773.12C983.04 796.87999488 965.83999488 814.08 942.08 814.08L819.2 814.08L819.2 855.04C819.2 877.44 800.64 896 778.24 896L737.28 896C714.88 896 696.32 877.44 696.32 855.04L696.32 814.08L327.68 814.08L327.68 855.04C327.68 877.44 309.12 896 286.7200000000001 896zM245.76 855.04L286.7200000000001 855.04L286.7200000000001 732.16L245.76 732.16zM737.28 855.04L778.24 855.04L778.24 732.16L737.28 732.16zM40.96 588.8L40.96 -46.08C40.96 -69.8399948800001 58.16000512 -87.04 81.92 -87.04L942.08 -87.04C965.83999488 -87.04 983.04 -69.8399948800001 983.04 -46.08L983.04 588.8zM245.76 465.92L348.1600000000001 465.92L348.1600000000001 363.52L245.76 363.52zM389.12 465.92L491.52 465.92L491.52 363.52L389.12 363.52zM532.48 465.92L634.88 465.92L634.88 363.52L532.48 363.52zM675.84 465.92L778.24 465.92L778.24 363.52L675.84 363.52zM245.76 322.56L348.1600000000001 322.56L348.1600000000001 220.16L245.76 220.16zM389.12 322.56L491.52 322.56L491.52 220.16L389.12 220.16zM532.48 322.56L634.88 322.56L634.88 220.16L532.48 220.16zM675.84 322.56L778.24 322.56L778.24 220.16L675.84 220.16zM245.76 179.1999999999999L348.1600000000001 179.1999999999999L348.1600000000001 76.8L245.76 76.8zM389.12 179.1999999999999L491.52 179.1999999999999L491.52 76.8L389.12 76.8zM532.48 179.1999999999999L634.88 179.1999999999999L634.88 76.8L532.48 76.8zM675.84 179.1999999999999L778.24 179.1999999999999L778.24 76.8L675.84 76.8z" />
    <glyph glyph-name="image-gallery"
      unicode="&#xF131;"
      horiz-adv-x="1024" d="M61.44 793.6C50.11456 793.6 40.96 784.44544 40.96 773.12L40.96 199.68C40.96 188.35456 50.11456 179.1999999999999 61.44 179.1999999999999L757.76 179.1999999999999C769.08544 179.1999999999999 778.24 188.35456 778.24 199.68L778.24 773.12C778.24 784.44544 769.08544 793.6 757.76 793.6L61.44 793.6zM81.92 752.64L737.28 752.64L737.28 412.9599897600001L628.87999488 521.3599948799999C621.15903488 529.08095488 608.92864512 529.1679948799999 600.88000512 521.99999488L448.39999488 369.52000512C444.40639488 365.52640512 439.1424 363.52 433.92 363.52C428.6976 363.52 423.43360512 365.52640512 419.44000512 369.52000512C411.4323251200001 377.52768512 411.4323251200001 390.47231488 419.44000512 398.47999488L485.12 464.11999232L301.83999488 664.07999488C294.18047488 672.39487488 281.27488 672.99807232 272.96 665.3999923199999L81.92 491.76000512L81.92 752.64zM614.4 691.2A40.96 40.96 0 0 1 573.44 650.24A40.96 40.96 0 0 1 614.4 609.28A40.96 40.96 0 0 1 655.36 650.24A40.96 40.96 0 0 1 614.4 691.2zM819.2 691.2L819.2 650.24L839.6800000000001 650.24L839.6800000000001 117.76L184.32 117.76L184.32 138.24L143.36 138.24L143.36 97.28A20.482048 20.482048 0 0 1 163.84 76.8L860.16 76.8A20.482048 20.482048 0 0 1 880.64 97.28L880.64 670.72A20.482048 20.482048 0 0 1 860.16 691.2L819.2 691.2zM921.6 588.8L921.6 547.8399999999999L942.08 547.8399999999999L942.08 15.36L286.7200000000001 15.36L286.7200000000001 35.84L245.76 35.84L245.76 -5.12A20.482048 20.482048 0 0 1 266.24 -25.6L962.56 -25.6A20.482048 20.482048 0 0 1 983.04 -5.12L983.04 568.3199999999999A20.482048 20.482048 0 0 1 962.56 588.8L921.6 588.8z" />
    <glyph glyph-name="eye"
      unicode="&#xF132;"
      horiz-adv-x="1024" d="M387.8400000000001 632.96C182.72 577.5999999999999 33.03999488 406.08 25.6 397.44C19.04001024 389.76 19.04001024 378.24 25.6 370.56C34.48000512 360.24000512 245.51999488 117.76 512 117.76C778.48000512 117.76 989.51999488 360.24000512 998.4 370.56C1004.96001024 378.24 1004.96001024 389.76 998.4 397.44C990.96000512 406.08 841.28 577.52000512 636.16 632.96C696.88000512 592.64 737.28 523.8399999999999 737.28 445.44C737.20000512 321.03999488 636.40000512 220.16 512 220.16C387.59999488 220.16 286.7999948800001 321.03999488 286.7200000000001 445.44C286.7200000000001 523.8399999999999 327.1199948800001 592.64 387.8400000000001 632.96zM512 547.8399999999999C455.43999488 547.8399999999999 409.6 502.00000512 409.6 445.44C409.6 388.8799948800001 455.43999488 343.04 512 343.04C568.56000512 343.04 614.4 388.8799948800001 614.4 445.44C614.4 502.00000512 568.56000512 547.8399999999999 512 547.8399999999999z" />
    <glyph glyph-name="privacy"
      unicode="&#xF133;"
      horiz-adv-x="1024" d="M512 875.52C376.48001024 875.52 266.24 765.27998976 266.24 629.76L266.24 568.3199999999999L307.2 568.3199999999999L307.2 629.76C307.2 742.72 399.04 834.56 512 834.56C624.96 834.56 716.8000000000001 742.72 716.8000000000001 629.76L716.8000000000001 568.3199999999999L757.76 568.3199999999999L757.76 629.76C757.76 765.27998976 647.52001024 875.52 512 875.52zM184.32 527.36C150.47999488 527.36 122.88 499.76000512 122.88 465.92L122.88 -25.6C122.88 -59.44000512 150.47999488 -87.04 184.32 -87.04L839.6800000000001 -87.04C873.52000512 -87.04 901.12 -59.44000512 901.12 -25.6L901.12 465.92C901.12 499.76000512 873.52000512 527.36 839.6800000000001 527.36zM512 363.52C591.20001024 363.52 655.36 299.35998976 655.36 220.16C655.36 140.95998976 591.20001024 76.8 512 76.8C432.80001024 76.8 368.64 140.95998976 368.64 220.16C368.64 299.35998976 432.80001024 363.52 512 363.52zM512 302.0800000000001C466.95999488 302.0800000000001 430.08 265.20000512 430.08 220.16C430.08 175.11999488 466.95999488 138.24 512 138.24C557.04000512 138.24 593.92 175.11999488 593.92 220.16C593.92 228.31998976 592.16001024 236.31998976 590.08 244.48C583.92000512 230.15999488 569.35999488 220.16 552.96 220.16C530.40001024 220.16 512 238.55998976 512 261.12C512 277.51999488 521.99999488 292.08000512 536.32 298.24C528.16001024 300.31998976 520.16001024 302.0800000000001 512 302.0800000000001z" />
    <glyph glyph-name="security-lock"
      unicode="&#xF134;"
      horiz-adv-x="1024" d="M946.48000512 735.2800051199999C794.88 768.56000512 705.35999488 815.68 640 850.07998976C589.1999948800001 876.72000512 552.56000512 896 512 896C471.43999488 896 434.80000512 876.72000512 384 850.07998976C318.64000512 815.68 229.12 768.56000512 77.51999488 735.2800051199999L61.44 731.76000512L61.44 715.27999488C61.44 91.44000512 498.95999488 -117.8399948800001 503.43999488 -119.84001024L512.39999488 -124.00001024L521.28 -119.52001024C525.68000512 -117.1999948800001 962.56 112.15998976 962.56 715.27999488L962.56 731.76000512zM593.92 250.88L430.08 250.88L467.2 417.92C444.8799948800001 432.56000512 430.08 457.67999488 430.08 486.4C430.08 531.67998976 466.72001024 568.3199999999999 512 568.3199999999999C557.28001024 568.3199999999999 593.92 531.67998976 593.92 486.4C593.92 457.67999488 579.12000512 432.56000512 556.8000000000001 417.92z" />
    <glyph glyph-name="email-open"
      unicode="&#xF135;"
      horiz-adv-x="1024" d="M512 834.56C493.32224 834.56 457.47073024 830.673278976 428.00001024 805.360001024C427.8751027200001 805.265758208 427.05328128 804.542076928 426.9199974400001 804.440000512C417.70856448 797.438887936 397.34450176 779.529261056 368.3599974400001 754.4L366.32000512 752.64L225.28 752.64C213.95456 752.64 204.8 743.4854399999999 204.8 732.16L204.8 610.03999232C134.36928 547.7807923199999 74.574399488 494.51999232 68.839999488 489.39999232L245.76 351.56000768L245.76 711.6800000000001L368.39999488 711.6800000000001A20.482048 20.482048 0 0 1 378.12000768 711.6800000000001L645.40000256 711.6800000000001A20.482048 20.482048 0 0 1 652.48 711.6800000000001L778.24 711.6800000000001L778.24 351.56000768L955.16000256 489.39999232C949.40512256 494.51999232 889.63072 547.7807923199999 819.2 610.03999232L819.2 732.16C819.2 743.4854399999999 810.04544 752.64 798.72 752.64L656.52000768 752.64C653.09186048 755.717687296 649.9422412800001 758.427328512 646.47999488 761.520001024C623.20529408 782.375917568 605.18447104 798.305394688 597.00000768 804.5199994879999C596.93316096 804.577314816 596.86688768 804.6228992 596.8000000000001 804.679999488C596.12741632 805.2539392 595.4371174400001 805.687406592 594.76000768 806.24C591.61315328 808.80764928 588.4241715200001 811.27003136 585.20000512 813.400000512C581.31390464 815.973812224 577.3947904 818.240821248 573.47999744 820.239998976C573.47999744 820.239998976 573.44 820.280000512 573.44 820.280000512C573.44 820.280000512 573.40000256 820.280000512 573.40000256 820.280000512C565.5130111999999 824.285618176 557.66726656 827.24917248 550.15999488 829.360001024C542.58569216 831.493097472 535.3987891200001 832.788557824 528.88000512 833.560000512C522.41537024 834.333120512 516.66944 834.56 512 834.56zM327.68 609.28A20.482048 20.482048 0 1 1 327.68 568.3199999999999L696.32 568.3199999999999A20.482048 20.482048 0 1 1 696.32 609.28L327.68 609.28zM327.68 506.88A20.482048 20.482048 0 1 1 327.68 465.92L552.96 465.92A20.482048 20.482048 0 1 1 552.96 506.88L327.68 506.88zM61.44 442.67999232L61.44 53.51999488C63.0784 54.76927488 64.58112 55.9897599999999 66.24 57.28C137.38752 112.61696 235.05440768 188.57375744 311.24000768 247.7199974400001L61.44 442.67999232zM962.56 442.67999232L711.4799923200001 246.7200000000001C786.19103232 187.7580800000001 883.712 110.8748902399999 962.56 48.79998976L962.56 442.67999232zM512 326.19999232C506.85952 326.19999232 479.90368256 325.17087232 452.44000256 305.07999232C433.61888256 291.17407232 211.00320768 117.96064256 91.399999488 24.9200025599999C80.095039488 16.1340825599999 70.2464 8.43935744 61.44 1.63999744L61.44 -46.08C61.44 -57.40544 70.59456 -66.5600000000001 81.92 -66.5600000000001L942.08 -66.5600000000001C953.40544 -66.5600000000001 962.56 -57.40544 962.56 -46.08L962.56 -3.31999232C818.6060799999999 109.9753676800001 586.89536 292.73856 570.88 305.6C548.47488 323.49952 524.36992 326.19999232 512 326.19999232z" />
    <glyph glyph-name="new-post"
      unicode="&#xF136;"
      horiz-adv-x="1024" d="M0 752.64L0 693.76L512 287.36L1024 688.64L1024 752.64zM0 641.92L0 15.36L1024 15.36L1024 636.8L524.8 245.12C521.1200102399999 242.24 516.48 240.64 512 240.64C507.52 240.64 502.96000512 242.16000512 499.2 245.12z" />
    <glyph glyph-name="post"
      unicode="&#xF137;"
      horiz-adv-x="1024" d="M184.32 814.08C127.77472 814.08 81.92 768.22528 81.92 711.6800000000001L81.92 56.3199999999999C81.92 -0.2252800000001 127.77472 -46.08 184.32 -46.08L839.6800000000001 -46.08C896.2252800000001 -46.08 942.08 -0.2252800000001 942.08 56.3199999999999L942.08 711.6800000000001C942.08 768.22528 896.2252800000001 814.08 839.6800000000001 814.08L184.32 814.08zM225.28 568.3199999999999L798.72 568.3199999999999L798.72 557.64000768C791.88781056 552.15998976 743.23816448 513.13481728 685.51999488 466.71998976C623.88805632 417.15789824 561.12224256 366.63824384 550.00000512 357.2399923200001C535.56516864 345.0426368 520.2508595200001 343.04 512 343.04C503.72524032 343.04 488.46856192 345.03241728 474.03999232 357.2399923200001C462.87632384 366.68526592 400.1122304 417.16025344 338.48000512 466.71998976C280.7615488 513.13262592 232.11214848 552.15972352 225.28 557.64000768L225.28 568.3199999999999zM225.28 505.16000768C245.79252224 488.69146624 268.1927065600001 470.70181376 312.8400076800001 434.80000512C341.83892992 411.48133376 351.99299584 403.13389056 376.24000512 383.56000768L225.28 262.79999488L225.28 505.16000768zM798.72 505.16000768L798.72 262.79999488L647.71999744 383.56000768C671.97360128 403.1323136 682.15508992 411.47531264 711.15999232 434.80000512C755.8074777600001 470.7038412799999 778.2075392 488.6921216 798.72 505.16000768zM408.88000512 357.19999488C419.15199488 348.8709017599999 445.30290688 327.86966528 447.56000768 325.96000768C471.18327808 305.97302272 496.88659968 302.0800000000001 512 302.0800000000001C527.13730048 302.0800000000001 552.78299136 306.0037632 576.39999488 325.96000768C578.66858496 327.87693568 604.8051814400001 348.8728678400001 615.07999744 357.19999488L798.72 210.31999488L798.72 199.68L225.28 199.68L225.28 210.31999488L408.88000512 357.19999488z" />
    <glyph glyph-name="phone"
      unicode="&#xF138;"
      horiz-adv-x="1024" d="M799.36 -66.5600000000001C799.04 -66.5600000000001 798.72 -66.5600000000001 798.4 -66.5600000000001C644.48 -61.51999488 464.16001024 87.68 339.9199948800001 211.9999897600001C215.52001024 336.32 66.31999488 516.72000512 61.51999488 669.91998976C59.76000512 723.67998976 191.68 819.27999488 193.03999488 820.23999488C227.27999488 844.08000512 265.2800000000001 835.59999488 280.88000512 814.00000512C291.44000512 799.36 391.4399948800001 647.83998976 402.31999488 630.64000512C413.60001024 612.8 411.9199948800001 586.24 397.83999488 559.60000512C390.08 544.79998976 364.32001024 499.52 352.24000512 478.4C365.28001024 459.84 399.75999488 414.32000512 470.96000512 343.1199948800001C542.24001024 271.92000512 587.68001024 237.36000512 606.32000512 224.3199999999999C627.44000512 236.40000512 672.7199948800001 262.15999488 687.52001024 269.91998976C713.76001024 283.8400000000001 740.16 285.59998976 758.15999488 274.56C776.56000512 263.28000512 927.68 162.8000051199999 941.60001024 153.1199897600001C953.28 144.88000512 960.80001024 130.8000051199999 962.31999488 114.3999897600001C963.76000512 97.84000512 958.64000512 80.3199999999999 948.00001024 65.03999488C947.12000512 63.75999488 852.64001024 -66.5600000000001 799.36 -66.5600000000001z" />
    <glyph glyph-name="iphone-x"
      unicode="&#xF139;"
      horiz-adv-x="1024" d="M307.2 855.04C250.88991232 855.04 204.8 808.950089728 204.8 752.64L204.8 15.36C204.8 -40.95008768 250.88991232 -87.04 307.2 -87.04L716.8000000000001 -87.04C773.11008768 -87.04 819.2 -40.95008768 819.2 15.36L819.2 752.64C819.2 808.950089728 773.11008768 855.04 716.8000000000001 855.04L307.2 855.04zM730.03999232 812.600000512C757.73124608 806.60093952 778.24 782.2443008 778.24 752.64L778.24 15.36C778.24 -18.8105523200001 750.97055232 -46.08 716.8000000000001 -46.08L307.2 -46.08C273.0294476800001 -46.08 245.76 -18.8105523200001 245.76 15.36L245.76 752.64C245.76 781.84655872 265.7546240000001 805.875451904 292.8799948800001 812.280000512C292.95593472 812.254957568 293.00359168 812.184219648 293.0800025600001 812.16C307.82560256 807.47008 318.5804697600001 795.0976 321.12001024 779.84L327.32000256 742.56C332.25568256 712.80256 357.7529548800001 691.2 387.9199948800001 691.2L633.67999488 691.2C663.8675148799999 691.2 689.34432768 712.82304 694.28000768 742.56L700.48 779.84C703.0964428799999 795.53870848 714.70311424 808.3767029759999 730.03999232 812.600000512zM450.56 793.6L512 793.6C523.3254400000001 793.6 532.48 784.4249599999999 532.48 773.12C532.48 761.81504 523.3254400000001 752.64 512 752.64L450.56 752.64C439.23456 752.64 430.08 761.81504 430.08 773.12C430.08 784.4249599999999 439.23456 793.6 450.56 793.6zM573.44 793.6C584.74496 793.6 593.92 784.4249599999999 593.92 773.12C593.92 761.81504 584.74496 752.64 573.44 752.64C562.13504 752.64 552.96 761.81504 552.96 773.12C552.96 784.4249599999999 562.13504 793.6 573.44 793.6z" />
    <glyph glyph-name="smartphone"
      unicode="&#xF13A;"
      horiz-adv-x="1024" d="M290.16000512 855.04C254.40192512 855.04 225.28 825.783359488 225.28 789.799999488L225.28 -21.79999744C225.28 -57.76287744 254.40192512 -87.04 290.16000512 -87.04L733.8399948800001 -87.04C769.5980748800001 -87.04 798.72 -57.78335744 798.72 -21.79999744L798.72 789.799999488C798.72 825.783359488 769.5980748800001 855.04 733.8399948800001 855.04L290.16000512 855.04zM266.24 711.6800000000001L757.76 711.6800000000001L757.76 76.8L266.24 76.8L266.24 711.6800000000001zM511.96000256 547.8399999999999C428.56544256 547.8399999999999 359.69759232 485.1712 349.5599923200001 404.48L454.28000768 404.48C462.7792076800001 428.29824 485.2940800000001 445.44 512 445.44C538.70592 445.44 561.22175488 428.29824 569.67999488 404.48L674.40001024 404.48C664.26241024 485.1712 595.35456256 547.8399999999999 511.96000256 547.8399999999999zM349.5999897600001 363.52C359.73761024 282.8288 428.64543744 220.16 512.03999744 220.16C595.43455744 220.16 664.3024076800001 282.8288 674.44000768 363.52L569.7199923200001 363.52C561.22079232 339.7017600000001 538.70592 322.56 512 322.56C485.2940800000001 322.56 462.77824512 339.7017600000001 454.32000512 363.52L349.5999897600001 363.52zM450.56 15.36L573.44 15.36C584.76544 15.36 593.92 6.1849599999999 593.92 -5.12C593.92 -16.4249600000001 584.76544 -25.6 573.44 -25.6L450.56 -25.6C439.23456 -25.6 430.08 -16.4249600000001 430.08 -5.12C430.08 6.1849599999999 439.23456 15.36 450.56 15.36z" />
    <glyph glyph-name="speech-bubble"
      unicode="&#xF13B;"
      horiz-adv-x="1024" d="M512 814.08C252.23999488 814.08 40.96 630.3200051199999 40.96 404.48C40.96 277.76 109.28001024 157.36000512 224.24000512 80.07999488C221.51999488 58.56 210.63999488 6.32000512 167.60000512 -54.79999488L144.96 -86.88001024L185.44001024 -87.04C296.64 -87.04 371.8400000000001 -18.88 396.5599948800001 7.2800051199999C434.08001024 -0.96 472.88000512 -5.12 512 -5.12C771.76000512 -5.12 983.04 178.63999488 983.04 404.48C983.04 630.3200051199999 771.76000512 814.08 512 814.08z" />
    <glyph glyph-name="chat-message"
      unicode="&#xF13C;"
      horiz-adv-x="1024" d="M512 833.1264C253.05088 833.1264 42.3936 650.01472 42.3936 424.96C42.3936 298.47552 110.75584 178.2783999999999 225.83296 101.2736C223.2524800000001 80.09728 212.60288 27.09504 168.7552 -35.1232000000001C164.6796800000001 -40.9190400000001 164.1472000000001 -48.4966400000001 167.4035200000001 -54.80448C170.65984 -61.1123200000001 177.1520000000001 -65.0854400000001 184.23808 -65.1264C184.64768 -65.1264 185.01632 -65.1264 185.4464 -65.1264C297.02144 -65.1059200000001 372.1216000000001 3.82976 396.0422400000001 29.30688C433.7868800000001 21.0124799999999 472.7193600000001 16.7936 512 16.7936C770.94912 16.7936 981.6064 199.8847999999999 981.6064 424.96S770.94912 833.1264 512 833.1264zM286.7200000000001 568.3199999999999H737.28C748.58496 568.3199999999999 757.76 559.16544 757.76 547.8399999999999S748.58496 527.36 737.28 527.36H286.7200000000001C275.4150400000001 527.36 266.24 536.51456 266.24 547.8399999999999S275.4150400000001 568.3199999999999 286.7200000000001 568.3199999999999zM204.8 404.48C193.49504 404.48 184.32 413.63456 184.32 424.96S193.49504 445.44 204.8 445.44H552.96C564.26496 445.44 573.44 436.28544 573.44 424.96S564.26496 404.48 552.96 404.48H204.8zM737.28 281.6H286.7200000000001C275.4150400000001 281.6 266.24 290.75456 266.24 302.0800000000001S275.4150400000001 322.56 286.7200000000001 322.56H737.28C748.58496 322.56 757.76 313.40544 757.76 302.0800000000001S748.58496 281.6 737.28 281.6zM819.2 404.48H675.84C664.53504 404.48 655.36 413.63456 655.36 424.96S664.53504 445.44 675.84 445.44H819.2C830.50496 445.44 839.6800000000001 436.28544 839.6800000000001 424.96S830.50496 404.48 819.2 404.48z" />
    <glyph glyph-name="faq"
      unicode="&#xF13D;"
      horiz-adv-x="1024" d="M450.56 896C404.64001024 896 368.64 859.99998976 368.64 814.08L368.64 486.4C368.64 440.47998976 404.64001024 404.48 450.56 404.48L770.5600000000001 404.48L928.64 266.24C932.40000512 262.96000512 937.20000512 261.12 942.08 261.12C944.96 261.12 947.68001024 261.76 950.4 263.04C957.76 266.31999488 962.56 273.52000512 962.56 281.6L962.56 407.04C998.24001024 415.92000512 1024 447.5199897600001 1024 486.4L1024 814.08C1024 859.99998976 988.00001024 896 942.08 896zM675.84 771.2L718.72 771.2L768 535.6800000000001L730.88 535.6800000000001L718.72 597.12L673.92 597.12L661.76 535.6800000000001L624.64 535.6800000000001zM696.32 732.16C694.24001024 715.76000512 690.08001024 693.36000512 688 679.04L677.76 625.9200000000001L716.8000000000001 625.9200000000001L706.5600000000001 679.04C702.47999488 693.36000512 700.32001024 715.76000512 698.24 732.16zM81.92 506.88C36.00001024 506.88 0 470.87998976 0 424.96L0 97.28C0 58.48000512 25.76001024 26.8000051199999 61.44 17.92L61.44 -107.52C61.44 -115.59999488 66.24 -122.80000512 73.6 -126.08C76.32001024 -127.36 79.04 -128 81.92 -128C86.79999488 -128 91.52 -126.15999488 95.36 -122.88L253.44 15.36L573.44 15.36C619.36001024 15.36 655.36 51.35998976 655.36 97.28L655.36 363.52L450.56 363.52C381.68000512 363.52 327.68 417.52000512 327.68 486.4L327.68 506.88zM319.36 384C368.48001024 384 387.2 331.0399897600001 387.2 267.52C387.2 206.0800000000001 372.64001024 171.03998976 350.08 158.72L350.08 156.8C364.40000512 150.64000512 381.19999488 144.24000512 395.52 140.16L382.7200000000001 111.36C364.32001024 119.5199897600001 340.08000512 131.9999897600001 325.76 140.16C321.6799948800001 142.23998976 317.60001024 144.64 315.52 144.64C272.48001024 144.64 245.76 185.1199897600001 245.76 264.9600000000001C245.76 334.55998976 272.24000512 384 319.36 384zM317.44 353.28C292.8799948800001 353.28 284.8 310.55998976 284.8 267.52C284.8 218.3999897600001 292.8799948800001 177.28 317.44 177.28C340.00001024 177.28 348.1600000000001 218.3999897600001 348.1600000000001 267.52C348.1600000000001 312.5600051200001 340.00001024 353.28 317.44 353.28z" />
    </font>
</defs>
</svg>
